<?xml version="1.0" standalone="no"?>
<!DOCTYPE svg PUBLIC "-//W3C//DTD SVG 1.1//EN" "http://www.w3.org/Graphics/SVG/1.1/DTD/svg11.dtd" >
<svg xmlns="http://www.w3.org/2000/svg">
<defs>
  <font id="qicons" horiz-adv-x="726">
    <font-face font-family="qicons"
      units-per-em="513" ascent="513"
      descent="0" />
    <missing-glyph horiz-adv-x="0" />
    <glyph glyph-name="address-card"
      unicode="&#xEA01;"
      horiz-adv-x="512" d="M464 448H48C21.49 448 0 426.51 0 400V112C0 85.49 21.49 64 48 64H464C490.51 64 512 85.49 512 112V400C512 426.51 490.51 448 464 448zM480 112C480 103.178 472.822 96 464 96H48C39.178 96 32 103.178 32 112V400C32 408.822 39.178 416 48 416H464C472.822 416 480 408.822 480 400V112zM436 192H332C325.373 192 320 197.373 320 204V212C320 218.627 325.373 224 332 224H436C442.627 224 448 218.627 448 212V204C448 197.373 442.627 192 436 192zM436 256H332C325.373 256 320 261.373 320 268V276C320 282.627 325.373 288 332 288H436C442.627 288 448 282.627 448 276V268C448 261.373 442.627 256 436 256zM436 320H332C325.373 320 320 325.373 320 332V340C320 346.627 325.373 352 332 352H436C442.627 352 448 346.627 448 340V332C448 325.373 442.627 320 436 320zM250.16 259.83L244.02 261.94C251.62 274.17 256 288.5800000000001 256 304C256 348.11 220.11 384 176 384S96 348.11 96 304C96 288.5800000000001 100.38 274.17 107.98 261.94L101.84 259.83C79.21 252.07 64 230.78 64 206.86V172C64 147.74 83.74 128 108 128H244C268.26 128 288 147.74 288 172V206.86C288 230.7800000000001 272.79 252.07 250.16 259.8300000000001zM128 304C128 330.51 149.49 352 176 352S224 330.51 224 304C224 277.575 202.587 256 176 256C149.467 256 128 277.52 128 304zM256 172C256 165.37 250.63 160 244 160H108C101.37 160 96 165.37 96 172V206.86C96 217.11 102.52 226.23 112.22 229.56L132.88 236.64C145.33 228.64 160.13 224 176 224S206.67 228.64 219.12 236.64L239.78 229.56C249.48 226.23 256 217.11 256 206.86V172z" />
    <glyph glyph-name="address-card-1"
      unicode="&#x61;&#x64;&#x64;&#x72;&#x65;&#x73;&#x73;&#x5F;&#x63;&#x61;&#x72;&#x64;"
      horiz-adv-x="512" d="M464 448H48C21.49 448 0 426.51 0 400V112C0 85.49 21.49 64 48 64H464C490.51 64 512 85.49 512 112V400C512 426.51 490.51 448 464 448zM480 112C480 103.178 472.822 96 464 96H48C39.178 96 32 103.178 32 112V400C32 408.822 39.178 416 48 416H464C472.822 416 480 408.822 480 400V112zM436 192H332C325.373 192 320 197.373 320 204V212C320 218.627 325.373 224 332 224H436C442.627 224 448 218.627 448 212V204C448 197.373 442.627 192 436 192zM436 256H332C325.373 256 320 261.373 320 268V276C320 282.627 325.373 288 332 288H436C442.627 288 448 282.627 448 276V268C448 261.373 442.627 256 436 256zM436 320H332C325.373 320 320 325.373 320 332V340C320 346.627 325.373 352 332 352H436C442.627 352 448 346.627 448 340V332C448 325.373 442.627 320 436 320zM250.16 259.83L244.02 261.94C251.62 274.17 256 288.5800000000001 256 304C256 348.11 220.11 384 176 384S96 348.11 96 304C96 288.5800000000001 100.38 274.17 107.98 261.94L101.84 259.83C79.21 252.07 64 230.78 64 206.86V172C64 147.74 83.74 128 108 128H244C268.26 128 288 147.74 288 172V206.86C288 230.7800000000001 272.79 252.07 250.16 259.8300000000001zM128 304C128 330.51 149.49 352 176 352S224 330.51 224 304C224 277.575 202.587 256 176 256C149.467 256 128 277.52 128 304zM256 172C256 165.37 250.63 160 244 160H108C101.37 160 96 165.37 96 172V206.86C96 217.11 102.52 226.23 112.22 229.56L132.88 236.64C145.33 228.64 160.13 224 176 224S206.67 228.64 219.12 236.64L239.78 229.56C249.48 226.23 256 217.11 256 206.86V172z" />
    <glyph glyph-name="angle-down"
      unicode="&#xEA02;"
      horiz-adv-x="256" d="M119.5 185.1L3.5 302.9C-1.2 307.6 -1.2 315.2000000000001 3.5 319.9L10.6 327C15.3 331.7 22.9 331.7 27.6 327L128 224.7L228.4 326.9C233.1 331.6 240.7 331.6 245.4 326.9L252.5 319.8C257.2 315.1 257.2 307.5 252.5 302.8L136.5 185C131.8 180.4 124.2 180.4 119.5 185.1z" />
    <glyph glyph-name="angle-down-1"
      unicode="&#x61;&#x6E;&#x67;&#x6C;&#x65;&#x5F;&#x64;&#x6F;&#x77;&#x6E;"
      horiz-adv-x="256" d="M119.5 185.1L3.5 302.9C-1.2 307.6 -1.2 315.2000000000001 3.5 319.9L10.6 327C15.3 331.7 22.9 331.7 27.6 327L128 224.7L228.4 326.9C233.1 331.6 240.7 331.6 245.4 326.9L252.5 319.8C257.2 315.1 257.2 307.5 252.5 302.8L136.5 185C131.8 180.4 124.2 180.4 119.5 185.1z" />
    <glyph glyph-name="angle-left"
      unicode="&#xEA03;"
      horiz-adv-x="192" d="M25.1 264.5L142.9 380.5C147.6 385.2 155.2 385.2 159.9 380.5L167 373.4C171.7 368.7000000000001 171.7 361.1 167 356.4L64.7 256L166.9 155.6C171.6 150.9 171.6 143.3 166.9 138.6L159.8 131.5C155.1 126.8 147.5 126.8 142.8 131.5L25 247.5C20.4 252.2 20.4 259.8 25.1 264.5z" />
    <glyph glyph-name="angle-left-1"
      unicode="&#x61;&#x6E;&#x67;&#x6C;&#x65;&#x5F;&#x6C;&#x65;&#x66;&#x74;"
      horiz-adv-x="192" d="M25.1 264.5L142.9 380.5C147.6 385.2 155.2 385.2 159.9 380.5L167 373.4C171.7 368.7000000000001 171.7 361.1 167 356.4L64.7 256L166.9 155.6C171.6 150.9 171.6 143.3 166.9 138.6L159.8 131.5C155.1 126.8 147.5 126.8 142.8 131.5L25 247.5C20.4 252.2 20.4 259.8 25.1 264.5z" />
    <glyph glyph-name="angle-right"
      unicode="&#xEA04;"
      horiz-adv-x="192" d="M166.9 247.5L49.1 131.5C44.4 126.8 36.8 126.8 32.1 131.5L25 138.6C20.3 143.3 20.3 150.9 25 155.6L127.3 256L25.1 356.4C20.4 361.1 20.4 368.7000000000001 25.1 373.4L32.2 380.5C36.9 385.2 44.5 385.2 49.2 380.5L167 264.5C171.6 259.8 171.6 252.2 166.9 247.5z" />
    <glyph glyph-name="angle-right-1"
      unicode="&#x61;&#x6E;&#x67;&#x6C;&#x65;&#x5F;&#x72;&#x69;&#x67;&#x68;&#x74;"
      horiz-adv-x="192" d="M166.9 247.5L49.1 131.5C44.4 126.8 36.8 126.8 32.1 131.5L25 138.6C20.3 143.3 20.3 150.9 25 155.6L127.3 256L25.1 356.4C20.4 361.1 20.4 368.7000000000001 25.1 373.4L32.2 380.5C36.9 385.2 44.5 385.2 49.2 380.5L167 264.5C171.6 259.8 171.6 252.2 166.9 247.5z" />
    <glyph glyph-name="angle-up"
      unicode="&#xEA05;"
      horiz-adv-x="256" d="M136.5 326.9L252.5 209.1C257.2 204.4 257.2 196.8 252.5 192.1L245.4 185C240.7 180.3 233.1 180.3 228.4 185L128 287.3L27.6 185.1C22.9 180.4 15.3 180.4 10.6 185.1L3.5 192.2000000000001C-1.2 196.9 -1.2 204.5000000000001 3.5 209.2000000000001L119.5 327.0000000000001C124.2 331.6 131.8 331.6 136.5 326.9000000000001z" />
    <glyph glyph-name="angle-up-1"
      unicode="&#x61;&#x6E;&#x67;&#x6C;&#x65;&#x5F;&#x75;&#x70;"
      horiz-adv-x="256" d="M136.5 326.9L252.5 209.1C257.2 204.4 257.2 196.8 252.5 192.1L245.4 185C240.7 180.3 233.1 180.3 228.4 185L128 287.3L27.6 185.1C22.9 180.4 15.3 180.4 10.6 185.1L3.5 192.2000000000001C-1.2 196.9 -1.2 204.5000000000001 3.5 209.2000000000001L119.5 327.0000000000001C124.2 331.6 131.8 331.6 136.5 326.9000000000001z" />
    <glyph glyph-name="archive"
      unicode="&#xEA06;"
      horiz-adv-x="512" d="M464 480H48C21.533 480 0 458.467 0 432V400C0 377.895 15.024 359.243 35.393 353.692A47.726 47.726 0 0 1 32 336V80C32 53.533 53.533 32 80 32H432C458.467 32 480 53.533 480 80V336A47.726 47.726 0 0 1 476.607 353.692C496.976 359.243 512 377.895 512 400V432C512 458.467 490.467 480 464 480zM448 80C448 71.163 440.836 64 432 64H80C71.163 64 64 71.163 64 80V336C64 344.837 71.163 352 80 352H432C440.836 352 448 344.837 448 336V80zM480 400C480 391.163 472.837 384 464 384H48C39.163 384 32 391.163 32 400V432C32 440.837 39.163 448 48 448H464C472.837 448 480 440.837 480 432V400zM308 256H204C197.373 256 192 261.373 192 268V276C192 282.627 197.373 288 204 288H308C314.627 288 320 282.627 320 276V268C320 261.373 314.627 256 308 256z" />
    <glyph glyph-name="archive-1"
      unicode="&#x61;&#x72;&#x63;&#x68;&#x69;&#x76;&#x65;"
      horiz-adv-x="512" d="M464 480H48C21.533 480 0 458.467 0 432V400C0 377.895 15.024 359.243 35.393 353.692A47.726 47.726 0 0 1 32 336V80C32 53.533 53.533 32 80 32H432C458.467 32 480 53.533 480 80V336A47.726 47.726 0 0 1 476.607 353.692C496.976 359.243 512 377.895 512 400V432C512 458.467 490.467 480 464 480zM448 80C448 71.163 440.836 64 432 64H80C71.163 64 64 71.163 64 80V336C64 344.837 71.163 352 80 352H432C440.836 352 448 344.837 448 336V80zM480 400C480 391.163 472.837 384 464 384H48C39.163 384 32 391.163 32 400V432C32 440.837 39.163 448 48 448H464C472.837 448 480 440.837 480 432V400zM308 256H204C197.373 256 192 261.373 192 268V276C192 282.627 197.373 288 204 288H308C314.627 288 320 282.627 320 276V268C320 261.373 314.627 256 308 256z" />
    <glyph glyph-name="arrow-left"
      unicode="&#xEA07;"
      horiz-adv-x="448" d="M231.536 36.465L238.607 43.535C243.293 48.2209999999999 243.293 55.819 238.607 60.506L60.113 239H436C442.627 239 448 244.373 448 251V261C448 267.627 442.627 273 436 273H60.113L238.607 451.494C243.293 456.18 243.293 463.778 238.607 468.465L231.536 475.535C226.85 480.221 219.252 480.221 214.566 475.535L3.515 264.485C-1.171 259.799 -1.171 252.201 3.515 247.514L214.566 36.464C219.252 31.778 226.85 31.778 231.536 36.465z" />
    <glyph glyph-name="arrow-left-1"
      unicode="&#x61;&#x72;&#x72;&#x6F;&#x77;&#x5F;&#x6C;&#x65;&#x66;&#x74;"
      horiz-adv-x="448" d="M231.536 36.465L238.607 43.535C243.293 48.2209999999999 243.293 55.819 238.607 60.506L60.113 239H436C442.627 239 448 244.373 448 251V261C448 267.627 442.627 273 436 273H60.113L238.607 451.494C243.293 456.18 243.293 463.778 238.607 468.465L231.536 475.535C226.85 480.221 219.252 480.221 214.566 475.535L3.515 264.485C-1.171 259.799 -1.171 252.201 3.515 247.514L214.566 36.464C219.252 31.778 226.85 31.778 231.536 36.465z" />
    <glyph glyph-name="arrow-right"
      unicode="&#xEA08;"
      horiz-adv-x="448" d="M216.464 475.535L209.393 468.465C204.707 463.779 204.707 456.181 209.393 451.494L387.887 273H12C5.373 273 0 267.627 0 261V251C0 244.373 5.373 239 12 239H387.887L209.393 60.506C204.707 55.82 204.707 48.222 209.393 43.535L216.464 36.465C221.15 31.779 228.748 31.779 233.434 36.465L444.485 247.515C449.171 252.201 449.171 259.799 444.485 264.486L233.434 475.535C228.748 480.222 221.15 480.222 216.464 475.535z" />
    <glyph glyph-name="arrow-right-1"
      unicode="&#x61;&#x72;&#x72;&#x6F;&#x77;&#x5F;&#x72;&#x69;&#x67;&#x68;&#x74;"
      horiz-adv-x="448" d="M216.464 475.535L209.393 468.465C204.707 463.779 204.707 456.181 209.393 451.494L387.887 273H12C5.373 273 0 267.627 0 261V251C0 244.373 5.373 239 12 239H387.887L209.393 60.506C204.707 55.82 204.707 48.222 209.393 43.535L216.464 36.465C221.15 31.779 228.748 31.779 233.434 36.465L444.485 247.515C449.171 252.201 449.171 259.799 444.485 264.486L233.434 475.535C228.748 480.222 221.15 480.222 216.464 475.535z" />
    <glyph glyph-name="badge-check"
      unicode="&#xEA09;"
      horiz-adv-x="512" d="M512 256C512 291.496 492.589 324.153 462.402 341.502C471.477 375.113 462.113 411.9260000000001 437.019 437.019C411.927 462.113 375.117 471.477 341.501 462.403C324.153 492.589 291.496 512 256 512S187.847 492.589 170.498 462.402C136.886 471.478 100.073 462.111 74.98 437.0180000000001C49.886 411.925 40.522 375.113 49.597 341.501C19.411 324.153 0 291.496 0 256S19.411 187.847 49.598 170.498C40.523 136.887 49.887 100.074 74.981 74.979C101.492 48.472 138.436 40.825 170.513 49.573C187.865 19.4 220.514 0 256 0S324.135 19.4 341.487 49.573C374.196 40.653 410.958 48.922 437.019 74.98C462.1129999999999 100.074 471.477 136.886 462.4019999999999 170.4979999999999C492.589 187.847 512 220.504 512 256zM420.855 187.71C426.201 175.932 450.437 133.653 414.392 97.608C385.529 68.747 356.8450000000001 76.3679999999999 324.289 91.144C319.745 79.041 306.99 32 256 32C203.894 32 191.319 81.533 187.71 91.145C155.099 76.344 126.36 68.859 97.607 97.608C60.861 134.355 86.781 178.098 91.144 187.711C79.042 192.255 32 205.01 32 256C32 308.106 81.533 320.681 91.145 324.29C85.799 336.068 61.563 378.3470000000001 97.608 414.3920000000001C134.444 451.225 178.364 425.098 187.711 420.856C192.255 432.959 205.01 480 256 480C308.106 480 320.681 430.467 324.29 420.855C336.0590000000001 426.197 378.3490000000001 450.435 414.3930000000001 414.391C451.139 377.646 425.2190000000001 333.902 420.8560000000001 324.289C432.9580000000001 319.745 480 306.99 480 256C480 203.894 430.467 191.319 420.855 187.71zM388.451 326.512L207.971 147.48C203.266 142.8130000000001 195.668 142.843 191.001 147.548L105.123 234.12C100.456 238.825 100.486 246.423 105.191 251.0900000000001L113.711 259.5410000000001C118.416 264.2080000000001 126.014 264.178 130.682 259.473L199.658 189.94L363.099 352.069C367.804 356.736 375.402 356.706 380.069 352.001L388.521 343.481C393.187 338.778 393.156 331.18 388.451 326.512z" />
    <glyph glyph-name="badge-check-1"
      unicode="&#x62;&#x61;&#x64;&#x67;&#x65;&#x5F;&#x63;&#x68;&#x65;&#x63;&#x6B;"
      horiz-adv-x="512" d="M512 256C512 291.496 492.589 324.153 462.402 341.502C471.477 375.113 462.113 411.9260000000001 437.019 437.019C411.927 462.113 375.117 471.477 341.501 462.403C324.153 492.589 291.496 512 256 512S187.847 492.589 170.498 462.402C136.886 471.478 100.073 462.111 74.98 437.0180000000001C49.886 411.925 40.522 375.113 49.597 341.501C19.411 324.153 0 291.496 0 256S19.411 187.847 49.598 170.498C40.523 136.887 49.887 100.074 74.981 74.979C101.492 48.472 138.436 40.825 170.513 49.573C187.865 19.4 220.514 0 256 0S324.135 19.4 341.487 49.573C374.196 40.653 410.958 48.922 437.019 74.98C462.1129999999999 100.074 471.477 136.886 462.4019999999999 170.4979999999999C492.589 187.847 512 220.504 512 256zM420.855 187.71C426.201 175.932 450.437 133.653 414.392 97.608C385.529 68.747 356.8450000000001 76.3679999999999 324.289 91.144C319.745 79.041 306.99 32 256 32C203.894 32 191.319 81.533 187.71 91.145C155.099 76.344 126.36 68.859 97.607 97.608C60.861 134.355 86.781 178.098 91.144 187.711C79.042 192.255 32 205.01 32 256C32 308.106 81.533 320.681 91.145 324.29C85.799 336.068 61.563 378.3470000000001 97.608 414.3920000000001C134.444 451.225 178.364 425.098 187.711 420.856C192.255 432.959 205.01 480 256 480C308.106 480 320.681 430.467 324.29 420.855C336.0590000000001 426.197 378.3490000000001 450.435 414.3930000000001 414.391C451.139 377.646 425.2190000000001 333.902 420.8560000000001 324.289C432.9580000000001 319.745 480 306.99 480 256C480 203.894 430.467 191.319 420.855 187.71zM388.451 326.512L207.971 147.48C203.266 142.8130000000001 195.668 142.843 191.001 147.548L105.123 234.12C100.456 238.825 100.486 246.423 105.191 251.0900000000001L113.711 259.5410000000001C118.416 264.2080000000001 126.014 264.178 130.682 259.473L199.658 189.94L363.099 352.069C367.804 356.736 375.402 356.706 380.069 352.001L388.521 343.481C393.187 338.778 393.156 331.18 388.451 326.512z" />
    <glyph glyph-name="balance-scale"
      unicode="&#xEA0A;"
      horiz-adv-x="576" d="M304 354.016C331.604 361.121 352 386.178 352 416H468C474.627 416 480 421.373 480 428V436C480 442.627 474.627 448 468 448H343.417C318.733 490.653 257.251 490.624 232.584 448H108C101.373 448 96 442.627 96 436V428C96 421.373 101.373 416 108 416H224C224 386.179 244.396 361.121 272 354.016V64H108C101.373 64 96 58.627 96 52V44C96 37.373 101.373 32 108 32H468C474.627 32 480 37.373 480 44V52C480 58.627 474.627 64 468 64H304V354.016zM256 416C256 433.645 270.355 448 288 448S320 433.645 320 416S305.645 384 288 384S256 398.355 256 416zM575.983 224C575.982 237.131 577.5329999999999 230.723 491.136 368.9600000000001C478.631 388.969 449.401 389.019 436.864 368.9600000000001C349.966 229.923 352.017 236.847 352.017 224H352C352 168.645 404.671 128 464 128C522.921 128 576 168.307 576 224H575.983zM464 352L544 224H384L464 352zM394.7630000000001 192H533.238C502.296 149.32 425.6410000000001 149.407 394.7630000000001 192zM224 224H223.983C223.982 237.131 225.533 230.723 139.136 368.9600000000001C126.631 388.969 97.401 389.019 84.864 368.9600000000001C-2.034 229.923 0.017 236.847 0.017 224H0C0 168.138 53.283 128 112 128C170.784 128 224 168.193 224 224zM112 352L192 224H32L112 352zM42.763 192H181.238C150.296 149.32 73.641 149.407 42.763 192z" />
    <glyph glyph-name="balance-scale-1"
      unicode="&#x62;&#x61;&#x6C;&#x61;&#x6E;&#x63;&#x65;&#x5F;&#x73;&#x63;&#x61;&#x6C;&#x65;"
      horiz-adv-x="576" d="M304 354.016C331.604 361.121 352 386.178 352 416H468C474.627 416 480 421.373 480 428V436C480 442.627 474.627 448 468 448H343.417C318.733 490.653 257.251 490.624 232.584 448H108C101.373 448 96 442.627 96 436V428C96 421.373 101.373 416 108 416H224C224 386.179 244.396 361.121 272 354.016V64H108C101.373 64 96 58.627 96 52V44C96 37.373 101.373 32 108 32H468C474.627 32 480 37.373 480 44V52C480 58.627 474.627 64 468 64H304V354.016zM256 416C256 433.645 270.355 448 288 448S320 433.645 320 416S305.645 384 288 384S256 398.355 256 416zM575.983 224C575.982 237.131 577.5329999999999 230.723 491.136 368.9600000000001C478.631 388.969 449.401 389.019 436.864 368.9600000000001C349.966 229.923 352.017 236.847 352.017 224H352C352 168.645 404.671 128 464 128C522.921 128 576 168.307 576 224H575.983zM464 352L544 224H384L464 352zM394.7630000000001 192H533.238C502.296 149.32 425.6410000000001 149.407 394.7630000000001 192zM224 224H223.983C223.982 237.131 225.533 230.723 139.136 368.9600000000001C126.631 388.969 97.401 389.019 84.864 368.9600000000001C-2.034 229.923 0.017 236.847 0.017 224H0C0 168.138 53.283 128 112 128C170.784 128 224 168.193 224 224zM112 352L192 224H32L112 352zM42.763 192H181.238C150.296 149.32 73.641 149.407 42.763 192z" />
    <glyph glyph-name="ban"
      unicode="&#xEA0B;"
      horiz-adv-x="512" d="M256 504C119.033 504 8 392.967 8 256S119.033 8 256 8S504 119.033 504 256S392.967 504 256 504zM103.265 103.265C22.643 183.887 19.116 312.222 92.365 397.008L397.009 92.365C312.2050000000001 19.101 183.871 22.659 103.265 103.265zM419.635 114.992L114.992 419.635C199.796 492.898 328.129 489.34 408.735 408.735C489.357 328.1140000000001 492.884 199.778 419.635 114.992z" />
    <glyph glyph-name="ban-1"
      unicode="&#x62;&#x61;&#x6E;"
      horiz-adv-x="512" d="M256 504C119.033 504 8 392.967 8 256S119.033 8 256 8S504 119.033 504 256S392.967 504 256 504zM103.265 103.265C22.643 183.887 19.116 312.222 92.365 397.008L397.009 92.365C312.2050000000001 19.101 183.871 22.659 103.265 103.265zM419.635 114.992L114.992 419.635C199.796 492.898 328.129 489.34 408.735 408.735C489.357 328.1140000000001 492.884 199.778 419.635 114.992z" />
    <glyph glyph-name="banca"
      unicode="&#xEA0C;"
      horiz-adv-x="384" d="M174.6 481.9L225.8 430.7C231.3 425.2 234.4 417.7 234.4 409.9V318.5H214.9V392.7H151.4C143.3 392.7 136.7 399.2 136.7 407.4V470.9H29.3C23.9 470.9 19.5 466.5 19.5 461.1V207.1C19.5 201.7000000000001 23.9 197.3 29.3 197.3H93.7V177.8H29.3C13.1 177.8 0 191 0 207.1V461.1C0 477.3 13.1 490.4 29.3 490.5H153.9C161.7 490.5 169.1 487.4 174.6 481.9zM214.6 412.3C214.2 414 213.3 415.5 212 416.8L160.8 468C159.5 469.3 158 470.1 156.3 470.6V412.3H214.6zM175.8 341.5V346.4C175.8 350.4 172.5 353.7000000000001 168.5 353.7000000000001H65.9C61.9 353.7000000000001 58.6 350.4 58.6 346.4V341.5C58.6 337.5 61.9 334.2 65.9 334.2H168.5C172.5 334.1 175.8 337.4 175.8 341.5zM175.8 307.3V302.4C175.8 298.4 172.5 295.1 168.5 295.1H65.9C61.9 295.1 58.6 298.4 58.6 302.4V307.3C58.6 311.3 61.9 314.6 65.9 314.6H168.5C172.5 314.6 175.8 311.3 175.8 307.3zM113.9 263.3V268.2000000000001C113.9 272.2000000000001 110.6 275.5 106.6 275.5H65.9C61.9 275.5 58.6 272.2000000000001 58.6 268.2000000000001V263.3C58.6 259.3 61.9 256 65.9 256H106.5C110.6 256 113.9 259.3 113.9 263.3zM382.2 37.8L315 106.7000000000001C313.8 107.9 312.2 108.6 310.6 108.6H305.2000000000001C323.1 128.4 334.0000000000001 154.9 334.0000000000001 184C334.0000000000001 245.4 285.5000000000001 295.1 225.6000000000001 295.1S117.2000000000001 245.4 117.2000000000001 184S165.7000000000001 72.9 225.6000000000001 72.9C254.0000000000001 72.9 279.8000000000001 84.1 299.1 102.4V97C299.1 95.3 299.8 93.7 300.9000000000001 92.5L368.1 23.6C370.5 21.1 374.5 21.1 377 23.6L382.2 28.9C384.6 31.2 384.6 35.3 382.2 37.8zM225.5 89.9C174.8 89.9 133.8 131.9 133.8 183.9C133.8 235.9 174.8 277.9 225.5 277.9S317.2 235.9 317.2 183.9C317.3 132 276.3 89.9 225.5 89.9z" />
    <glyph glyph-name="banca-1"
      unicode="&#x62;&#x61;&#x6E;&#x63;&#x61;"
      horiz-adv-x="384" d="M174.6 481.9L225.8 430.7C231.3 425.2 234.4 417.7 234.4 409.9V318.5H214.9V392.7H151.4C143.3 392.7 136.7 399.2 136.7 407.4V470.9H29.3C23.9 470.9 19.5 466.5 19.5 461.1V207.1C19.5 201.7000000000001 23.9 197.3 29.3 197.3H93.7V177.8H29.3C13.1 177.8 0 191 0 207.1V461.1C0 477.3 13.1 490.4 29.3 490.5H153.9C161.7 490.5 169.1 487.4 174.6 481.9zM214.6 412.3C214.2 414 213.3 415.5 212 416.8L160.8 468C159.5 469.3 158 470.1 156.3 470.6V412.3H214.6zM175.8 341.5V346.4C175.8 350.4 172.5 353.7000000000001 168.5 353.7000000000001H65.9C61.9 353.7000000000001 58.6 350.4 58.6 346.4V341.5C58.6 337.5 61.9 334.2 65.9 334.2H168.5C172.5 334.1 175.8 337.4 175.8 341.5zM175.8 307.3V302.4C175.8 298.4 172.5 295.1 168.5 295.1H65.9C61.9 295.1 58.6 298.4 58.6 302.4V307.3C58.6 311.3 61.9 314.6 65.9 314.6H168.5C172.5 314.6 175.8 311.3 175.8 307.3zM113.9 263.3V268.2000000000001C113.9 272.2000000000001 110.6 275.5 106.6 275.5H65.9C61.9 275.5 58.6 272.2000000000001 58.6 268.2000000000001V263.3C58.6 259.3 61.9 256 65.9 256H106.5C110.6 256 113.9 259.3 113.9 263.3zM382.2 37.8L315 106.7000000000001C313.8 107.9 312.2 108.6 310.6 108.6H305.2000000000001C323.1 128.4 334.0000000000001 154.9 334.0000000000001 184C334.0000000000001 245.4 285.5000000000001 295.1 225.6000000000001 295.1S117.2000000000001 245.4 117.2000000000001 184S165.7000000000001 72.9 225.6000000000001 72.9C254.0000000000001 72.9 279.8000000000001 84.1 299.1 102.4V97C299.1 95.3 299.8 93.7 300.9000000000001 92.5L368.1 23.6C370.5 21.1 374.5 21.1 377 23.6L382.2 28.9C384.6 31.2 384.6 35.3 382.2 37.8zM225.5 89.9C174.8 89.9 133.8 131.9 133.8 183.9C133.8 235.9 174.8 277.9 225.5 277.9S317.2 235.9 317.2 183.9C317.3 132 276.3 89.9 225.5 89.9z" />
    <glyph glyph-name="bar-chart"
      unicode="&#xEA0D;"
      horiz-adv-x="512" d="M500 96C506.6 96 512 90.6 512 84V76C512 69.4 506.6 64 500 64H12C5.4 64 0 69.4 0 76V436C0 442.6 5.4 448 12 448H20C26.6 448 32 442.6 32 436V96H500zM160 166V250C160 253.3 157.3 256 154 256H134C130.7 256 128 253.3 128 250V166C128 162.7 130.7 160 134 160H154C157.3 160 160 162.7 160 166zM480 166V410C480 413.3 477.3 416 474 416H454C450.7 416 448 413.3 448 410V166C448 162.7 450.7 160 454 160H474C477.3 160 480 162.7 480 166zM376 166V314C376 317.3 373.3 320 370 320H350C346.7 320 344 317.3 344 314V166C344 162.7 346.7 160 350 160H370C373.3 160 376 162.7 376 166zM272 166V378C272 381.3 269.3 384 266 384H246C242.7 384 240 381.3 240 378V166C240 162.7 242.7 160 246 160H266C269.3 160 272 162.7 272 166z" />
    <glyph glyph-name="bar-chart-1"
      unicode="&#x62;&#x61;&#x72;&#x5F;&#x63;&#x68;&#x61;&#x72;&#x74;"
      horiz-adv-x="512" d="M500 96C506.6 96 512 90.6 512 84V76C512 69.4 506.6 64 500 64H12C5.4 64 0 69.4 0 76V436C0 442.6 5.4 448 12 448H20C26.6 448 32 442.6 32 436V96H500zM160 166V250C160 253.3 157.3 256 154 256H134C130.7 256 128 253.3 128 250V166C128 162.7 130.7 160 134 160H154C157.3 160 160 162.7 160 166zM480 166V410C480 413.3 477.3 416 474 416H454C450.7 416 448 413.3 448 410V166C448 162.7 450.7 160 454 160H474C477.3 160 480 162.7 480 166zM376 166V314C376 317.3 373.3 320 370 320H350C346.7 320 344 317.3 344 314V166C344 162.7 346.7 160 350 160H370C373.3 160 376 162.7 376 166zM272 166V378C272 381.3 269.3 384 266 384H246C242.7 384 240 381.3 240 378V166C240 162.7 242.7 160 246 160H266C269.3 160 272 162.7 272 166z" />
    <glyph glyph-name="barcode-alt"
      unicode="&#xEA0E;"
      horiz-adv-x="640" d="M280 416H264C259.6 416 256 412.4 256 408V104C256 99.6 259.6 96 264 96H280C284.4 96 288 99.6 288 104V408C288 412.4 284.4 416 280 416zM216 416H200C195.6 416 192 412.4 192 408V104C192 99.6 195.6 96 200 96H216C220.4 96 224 99.6 224 104V408C224 412.4 220.4 416 216 416zM592 512H48C21.5 512 0 490.5 0 464V48C0 21.5 21.5 0 48 0H592C618.5 0 640 21.5 640 48V464C640 490.5 618.5 512 592 512zM608 48C608 39.2 600.8 32 592 32H48C39.2 32 32 39.2 32 48V464C32 472.8 39.2 480 48 480H592C600.8 480 608 472.8 608 464V48zM152 416H104C99.6 416 96 412.4 96 408V104C96 99.6 99.6 96 104 96H152C156.4 96 160 99.6 160 104V408C160 412.4 156.4 416 152 416zM536 416H488C483.6 416 480 412.4 480 408V104C480 99.6 483.6 96 488 96H536C540.4 96 544 99.6 544 104V408C544 412.4 540.4 416 536 416zM408 416H360C355.6 416 352 412.4 352 408V104C352 99.6 355.6 96 360 96H408C412.4 96 416 99.6 416 104V408C416 412.4 412.4 416 408 416z" />
    <glyph glyph-name="barcode-alt-1"
      unicode="&#x62;&#x61;&#x72;&#x63;&#x6F;&#x64;&#x65;&#x5F;&#x61;&#x6C;&#x74;"
      horiz-adv-x="640" d="M280 416H264C259.6 416 256 412.4 256 408V104C256 99.6 259.6 96 264 96H280C284.4 96 288 99.6 288 104V408C288 412.4 284.4 416 280 416zM216 416H200C195.6 416 192 412.4 192 408V104C192 99.6 195.6 96 200 96H216C220.4 96 224 99.6 224 104V408C224 412.4 220.4 416 216 416zM592 512H48C21.5 512 0 490.5 0 464V48C0 21.5 21.5 0 48 0H592C618.5 0 640 21.5 640 48V464C640 490.5 618.5 512 592 512zM608 48C608 39.2 600.8 32 592 32H48C39.2 32 32 39.2 32 48V464C32 472.8 39.2 480 48 480H592C600.8 480 608 472.8 608 464V48zM152 416H104C99.6 416 96 412.4 96 408V104C96 99.6 99.6 96 104 96H152C156.4 96 160 99.6 160 104V408C160 412.4 156.4 416 152 416zM536 416H488C483.6 416 480 412.4 480 408V104C480 99.6 483.6 96 488 96H536C540.4 96 544 99.6 544 104V408C544 412.4 540.4 416 536 416zM408 416H360C355.6 416 352 412.4 352 408V104C352 99.6 355.6 96 360 96H408C412.4 96 416 99.6 416 104V408C416 412.4 412.4 416 408 416z" />
    <glyph glyph-name="bars"
      unicode="&#xEA0F;"
      horiz-adv-x="448" d="M442 398H6A6 6 0 0 0 0 404V428A6 6 0 0 0 6 434H442A6 6 0 0 0 448 428V404A6 6 0 0 0 442 398zM442 238H6A6 6 0 0 0 0 244V268A6 6 0 0 0 6 274H442A6 6 0 0 0 448 268V244A6 6 0 0 0 442 238zM442 78H6A6 6 0 0 0 0 84V108A6 6 0 0 0 6 114H442A6 6 0 0 0 448 108V84A6 6 0 0 0 442 78z" />
    <glyph glyph-name="bars-1"
      unicode="&#x62;&#x61;&#x72;&#x73;"
      horiz-adv-x="448" d="M442 398H6A6 6 0 0 0 0 404V428A6 6 0 0 0 6 434H442A6 6 0 0 0 448 428V404A6 6 0 0 0 442 398zM442 238H6A6 6 0 0 0 0 244V268A6 6 0 0 0 6 274H442A6 6 0 0 0 448 268V244A6 6 0 0 0 442 238zM442 78H6A6 6 0 0 0 0 84V108A6 6 0 0 0 6 114H442A6 6 0 0 0 448 108V84A6 6 0 0 0 442 78z" />
    <glyph glyph-name="bell"
      unicode="&#xEA10;"
      horiz-adv-x="448" d="M433.884 145.941C411.634 168.191 384 195.882 384 304C384 383.394 326.169 449.269 250.337 461.83A31.845 31.845 0 0 1 256 480C256 497.673 241.673 512 224 512S192 497.673 192 480C192 473.25 194.095 466.992 197.663 461.83C121.831 449.269 64 383.394 64 304C64 195.882 36.357 168.191 14.107 145.941C-16.042 115.792 5.325 64 48.048 64H160C160 28.71 188.71 0 224 0S288 28.71 288 64H399.943C442.581 64 464.094 115.731 433.884 145.941zM224 32C206.355 32 192 46.355 192 64H256C256 46.355 241.645 32 224 32zM399.943 96H48.048C33.825 96 26.717 113.296 36.734 123.314C71.585 158.164 96 197.175 96 304C96 374.741 153.249 432 224 432C294.74 432 352 374.751 352 304C352 197.581 376.206 158.365 411.257 123.314C421.314 113.256 414.11 96 399.943 96z" />
    <glyph glyph-name="bell-1"
      unicode="&#x62;&#x65;&#x6C;&#x6C;"
      horiz-adv-x="448" d="M433.884 145.941C411.634 168.191 384 195.882 384 304C384 383.394 326.169 449.269 250.337 461.83A31.845 31.845 0 0 1 256 480C256 497.673 241.673 512 224 512S192 497.673 192 480C192 473.25 194.095 466.992 197.663 461.83C121.831 449.269 64 383.394 64 304C64 195.882 36.357 168.191 14.107 145.941C-16.042 115.792 5.325 64 48.048 64H160C160 28.71 188.71 0 224 0S288 28.71 288 64H399.943C442.581 64 464.094 115.731 433.884 145.941zM224 32C206.355 32 192 46.355 192 64H256C256 46.355 241.645 32 224 32zM399.943 96H48.048C33.825 96 26.717 113.296 36.734 123.314C71.585 158.164 96 197.175 96 304C96 374.741 153.249 432 224 432C294.74 432 352 374.751 352 304C352 197.581 376.206 158.365 411.257 123.314C421.314 113.256 414.11 96 399.943 96z" />
    <glyph glyph-name="bell-slash"
      unicode="&#xEA11;"
      horiz-adv-x="576" d="M112.048 96C97.825 96 90.717 113.296 100.734 123.314C133.335 155.9140000000001 156.802 192.161 159.696 284.146L128.204 312.039A163.61 163.61 0 0 1 128 304C128 195.882 100.357 168.191 78.107 145.941C47.958 115.792 69.325 64 112.048 64H224C224 28.71 252.71 0 288 0S352 28.71 352 64H408.249L372.12 96H112.048zM288 32C270.355 32 256 46.355 256 64H320C320 46.355 305.645 32 288 32zM571.923 27.074L504.542 86.495C515.51 104.163 515.23 128.596 497.884 145.942C475.634 168.191 448 195.882 448 304C448 383.394 390.169 449.269 314.337 461.83A31.845 31.845 0 0 1 320 480C320 497.673 305.673 512 288 512S256 497.673 256 480C256 473.25 258.0950000000001 466.992 261.663 461.83C217.739 454.554 179.873 429.379 155.77 394.063L25.467 508.972C20.465 513.382 12.819 512.921 8.389 507.941L3.042 501.93C-1.388 496.95 -0.924 489.338 4.077 484.927L550.533 3.029C555.535 -1.3819999999999 563.181 -0.92 567.611 4.06L572.959 10.071C577.3879999999999 15.05 576.925 22.663 571.923 27.074zM288 432C358.74 432 416 374.751 416 304C416 197.581 440.206 158.365 475.257 123.314C479.509 119.062 480.673 113.526 479.531 108.551L179.987 372.706C202.695 408.358 242.551 432 288 432z" />
    <glyph glyph-name="bell-slash-1"
      unicode="&#x62;&#x65;&#x6C;&#x6C;&#x5F;&#x73;&#x6C;&#x61;&#x73;&#x68;"
      horiz-adv-x="576" d="M112.048 96C97.825 96 90.717 113.296 100.734 123.314C133.335 155.9140000000001 156.802 192.161 159.696 284.146L128.204 312.039A163.61 163.61 0 0 1 128 304C128 195.882 100.357 168.191 78.107 145.941C47.958 115.792 69.325 64 112.048 64H224C224 28.71 252.71 0 288 0S352 28.71 352 64H408.249L372.12 96H112.048zM288 32C270.355 32 256 46.355 256 64H320C320 46.355 305.645 32 288 32zM571.923 27.074L504.542 86.495C515.51 104.163 515.23 128.596 497.884 145.942C475.634 168.191 448 195.882 448 304C448 383.394 390.169 449.269 314.337 461.83A31.845 31.845 0 0 1 320 480C320 497.673 305.673 512 288 512S256 497.673 256 480C256 473.25 258.0950000000001 466.992 261.663 461.83C217.739 454.554 179.873 429.379 155.77 394.063L25.467 508.972C20.465 513.382 12.819 512.921 8.389 507.941L3.042 501.93C-1.388 496.95 -0.924 489.338 4.077 484.927L550.533 3.029C555.535 -1.3819999999999 563.181 -0.92 567.611 4.06L572.959 10.071C577.3879999999999 15.05 576.925 22.663 571.923 27.074zM288 432C358.74 432 416 374.751 416 304C416 197.581 440.206 158.365 475.257 123.314C479.509 119.062 480.673 113.526 479.531 108.551L179.987 372.706C202.695 408.358 242.551 432 288 432z" />
    <glyph glyph-name="black-plan"
      unicode="&#xEA12;"
      horiz-adv-x="490" d="M181.060434 190.960459C169.72267 202.298223 140.244484 190.960459 126.639168 177.355142C79.02056 129.736534 58.612585 97.990795 49.542374 77.582821C47.274821 73.047715 47.274821 66.245057 51.809927 61.709952S63.147691 57.174846 67.682796 59.442399C85.823218 68.51261 119.836509 88.920585 167.455117 136.539193C183.327986 152.4120619999999 192.398197 181.8902479999999 181.060434 190.960459zM45.007269 299.802991L4.191319 258.9870410000001C-0.343787 254.4519350000001 -0.343787 247.6492770000001 1.923766 240.8466190000001C4.191319 236.3115130000001 10.993977 231.7764080000001 17.796635 234.043961C31.401952 238.579067 45.007268 240.8466190000001 56.345032 240.8466190000001S76.753007 245.381725 81.288112 254.4519360000001C92.625876 274.859911 106.231192 295.2678860000001 119.836509 313.4083080000001C126.639167 324.7460720000001 124.371615 338.3513880000001 110.766298 336.083836C90.358323 333.816283 67.682796 322.478519 45.007268 299.802992zM242.284359 16.358896C246.819465 14.091343 253.622123 14.091343 258.157228 18.626449L298.973178 59.442399C319.381153 79.8503740000001 328.451364 102.525901 330.718917 120.666323C332.98647 134.2716400000001 319.381153 138.806745 308.043389 132.004087C287.635414 118.39877 269.494992 107.061007 251.35457 95.723243C244.551912 91.188137 240.016806 82.117926 240.016806 70.780163C240.016806 61.7099520000001 237.749253 50.372188 235.4817 32.231766C235.4817 25.429108 237.749253 20.894002 242.284358 16.358897zM278.565203 361.0269150000001C258.157228 340.6189400000001 258.157228 308.873202 278.565203 288.4652270000001S330.718916 268.0572520000001 351.126891 288.4652270000001S371.534866 340.6189400000001 351.126891 361.0269150000001S298.973178 381.43489 278.565203 361.0269150000001zM489.447609 485.742317C489.447609 492.544975 482.644951 499.347634 475.842292 499.347634C439.561448 501.615187 403.280604 497.080081 369.267312 488.00987C371.534865 463.06679 385.140181 438.123709 405.548156 417.715735S453.166764 383.702444 478.109844 381.434891C487.180055 410.9130770000001 491.715161 447.1939210000001 489.447608 485.742318zM385.140182 395.040207C360.197102 419.983287 346.591785 449.461473 342.05668 476.672106C262.692333 442.658815 185.59554 374.6322320000001 122.104063 279.3950160000001C110.766299 263.522147 115.301405 243.1141720000001 128.906721 229.5088550000001C135.709379 222.706197 144.77959 222.706197 151.582249 224.9737490000001C171.990224 229.5088550000001 192.398199 229.5088550000001 206.003515 215.903538S221.876384 181.8902470000001 217.341279 161.482272C215.073726 152.412061 217.341279 143.34185 221.876385 138.806744C235.481702 125.201427 258.1572290000001 122.9338750000001 274.030098 132.004086C351.126892 184.157799 435.026344 256.719488 471.307188 354.2242560000001C439.561449 354.2242560000001 407.815711 370.097125 385.140183 395.040206zM362.464654 270.3248050000001C332.986468 240.8466190000001 287.635413 240.8466190000001 258.157227 270.3248050000001S228.679041 345.154046 258.157227 374.6322320000001S332.986468 404.1104180000001 362.464654 374.6322320000001S391.94284 297.5354380000001 362.464654 270.3248050000001z" />
    <glyph glyph-name="black-plan-1"
      unicode="&#x62;&#x6C;&#x61;&#x63;&#x6B;&#x5F;&#x70;&#x6C;&#x61;&#x6E;"
      horiz-adv-x="490" d="M181.060434 190.960459C169.72267 202.298223 140.244484 190.960459 126.639168 177.355142C79.02056 129.736534 58.612585 97.990795 49.542374 77.582821C47.274821 73.047715 47.274821 66.245057 51.809927 61.709952S63.147691 57.174846 67.682796 59.442399C85.823218 68.51261 119.836509 88.920585 167.455117 136.539193C183.327986 152.4120619999999 192.398197 181.8902479999999 181.060434 190.960459zM45.007269 299.802991L4.191319 258.9870410000001C-0.343787 254.4519350000001 -0.343787 247.6492770000001 1.923766 240.8466190000001C4.191319 236.3115130000001 10.993977 231.7764080000001 17.796635 234.043961C31.401952 238.579067 45.007268 240.8466190000001 56.345032 240.8466190000001S76.753007 245.381725 81.288112 254.4519360000001C92.625876 274.859911 106.231192 295.2678860000001 119.836509 313.4083080000001C126.639167 324.7460720000001 124.371615 338.3513880000001 110.766298 336.083836C90.358323 333.816283 67.682796 322.478519 45.007268 299.802992zM242.284359 16.358896C246.819465 14.091343 253.622123 14.091343 258.157228 18.626449L298.973178 59.442399C319.381153 79.8503740000001 328.451364 102.525901 330.718917 120.666323C332.98647 134.2716400000001 319.381153 138.806745 308.043389 132.004087C287.635414 118.39877 269.494992 107.061007 251.35457 95.723243C244.551912 91.188137 240.016806 82.117926 240.016806 70.780163C240.016806 61.7099520000001 237.749253 50.372188 235.4817 32.231766C235.4817 25.429108 237.749253 20.894002 242.284358 16.358897zM278.565203 361.0269150000001C258.157228 340.6189400000001 258.157228 308.873202 278.565203 288.4652270000001S330.718916 268.0572520000001 351.126891 288.4652270000001S371.534866 340.6189400000001 351.126891 361.0269150000001S298.973178 381.43489 278.565203 361.0269150000001zM489.447609 485.742317C489.447609 492.544975 482.644951 499.347634 475.842292 499.347634C439.561448 501.615187 403.280604 497.080081 369.267312 488.00987C371.534865 463.06679 385.140181 438.123709 405.548156 417.715735S453.166764 383.702444 478.109844 381.434891C487.180055 410.9130770000001 491.715161 447.1939210000001 489.447608 485.742318zM385.140182 395.040207C360.197102 419.983287 346.591785 449.461473 342.05668 476.672106C262.692333 442.658815 185.59554 374.6322320000001 122.104063 279.3950160000001C110.766299 263.522147 115.301405 243.1141720000001 128.906721 229.5088550000001C135.709379 222.706197 144.77959 222.706197 151.582249 224.9737490000001C171.990224 229.5088550000001 192.398199 229.5088550000001 206.003515 215.903538S221.876384 181.8902470000001 217.341279 161.482272C215.073726 152.412061 217.341279 143.34185 221.876385 138.806744C235.481702 125.201427 258.1572290000001 122.9338750000001 274.030098 132.004086C351.126892 184.157799 435.026344 256.719488 471.307188 354.2242560000001C439.561449 354.2242560000001 407.815711 370.097125 385.140183 395.040206zM362.464654 270.3248050000001C332.986468 240.8466190000001 287.635413 240.8466190000001 258.157227 270.3248050000001S228.679041 345.154046 258.157227 374.6322320000001S332.986468 404.1104180000001 362.464654 374.6322320000001S391.94284 297.5354380000001 362.464654 270.3248050000001z" />
    <glyph glyph-name="book"
      unicode="&#xEA13;"
      horiz-adv-x="448" d="M356 352H188C181.4 352 176 357.4 176 364V372C176 378.6 181.4 384 188 384H356C362.6 384 368 378.6 368 372V364C368 357.4 362.6 352 356 352zM368 300V308C368 314.6 362.6 320 356 320H188C181.4 320 176 314.6 176 308V300C176 293.4 181.4 288 188 288H356C362.6 288 368 293.4 368 300zM432.7 32H436C442.6 32 448 26.6 448 20V12C448 5.4 442.6 0 436 0H80C35.8 0 0 35.8 0 80V432C0 476.2 35.8 512 80 512H424C437.3 512 448 501.3 448 488V120C448 110 441.8 101.4 433.1 97.8C429.5 81.7 428.7000000000001 52.2 432.7000000000001 32zM128 128H416V480H128V128zM32 112C45.4 122 62 128 80 128H96V480H80C53.5 480 32 458.5 32 432V112zM404.3 32C401.2 52.4 401.4000000000001 77.2 404.3 96H80C16 96 16 32 80 32H404.3z" />
    <glyph glyph-name="book-1"
      unicode="&#x62;&#x6F;&#x6F;&#x6B;"
      horiz-adv-x="448" d="M356 352H188C181.4 352 176 357.4 176 364V372C176 378.6 181.4 384 188 384H356C362.6 384 368 378.6 368 372V364C368 357.4 362.6 352 356 352zM368 300V308C368 314.6 362.6 320 356 320H188C181.4 320 176 314.6 176 308V300C176 293.4 181.4 288 188 288H356C362.6 288 368 293.4 368 300zM432.7 32H436C442.6 32 448 26.6 448 20V12C448 5.4 442.6 0 436 0H80C35.8 0 0 35.8 0 80V432C0 476.2 35.8 512 80 512H424C437.3 512 448 501.3 448 488V120C448 110 441.8 101.4 433.1 97.8C429.5 81.7 428.7000000000001 52.2 432.7000000000001 32zM128 128H416V480H128V128zM32 112C45.4 122 62 128 80 128H96V480H80C53.5 480 32 458.5 32 432V112zM404.3 32C401.2 52.4 401.4000000000001 77.2 404.3 96H80C16 96 16 32 80 32H404.3z" />
    <glyph glyph-name="book-2"
      unicode="&#xEA14;"
      horiz-adv-x="448" d="M403.6 407.5H89.6C55.9 407.5 29.5 429.9 29.5 458.5C29.6 487 57.1 511 89.6 511H401.6C404.9000000000001 511 409.2000000000001 510.7 412.7000000000001 508.3C415.3000000000001 506.6 418.4000000000001 503.1 418.4000000000001 496.4C418.4000000000001 484.3 409.6 481.8 402.1 481.8H89.6C72.6 481.8 58.7 471.3 58.7 458.5S72.6 435.2 89.6 435.2H405.1C411.1 435.2 418.2000000000001 432.7 418.2000000000001 420.6C418.2 411.2 414.1 407.5 403.6 407.5zM403.6 1H104.8C84.6 1 65.7 8.8 51.5 23S29.5 56.1 29.5 76.3V457C29.5 465.5 35.6 471.6 44.1 471.6S58.7 465.4 58.7 457V76.3C58.7 51.3 79.8 30.2 104.8 30.2H405.1C411.4000000000001 30.2 418.2000000000001 26.4 418.2000000000001 15.6C418.2 7.1 412.1 1 403.6 1zM405.4 16.2C405.4 16.2 405.4 16.2 405.4 16.2S405.4 16.2 405.4 16.2zM403.6 1C395.2000000000001 1 389.1 7.1 389.1 15.5V417.3C389.1 423.6 392.9000000000001 430.3 403.6 430.3C407.2000000000001 430.3 418.1 430.3 418.1 417.3V15.5C418.1 7.1 412 1 403.6 1zM403.1 15.5M404.1 418.2L404.1 418.2L404.1 418.2zM297.4 204.3H148.8C140.3 204.3 134.2 210.4 134.2 218.9S140.3 233.5000000000001 148.8 233.5000000000001H297.4C305.9 233.5000000000001 312 227.4000000000001 312 218.9S305.9 204.3 297.4 204.3zM224.6 129.9C216.1 129.9 210 136 210 144.5V293.2C210 301.7 216.1 307.8 224.6 307.8S239.2 301.7 239.2 293.2V144.6C239.2 137.6 233 129.9 224.6 129.9z" />
    <glyph glyph-name="book-2-1"
      unicode="&#x62;&#x6F;&#x6F;&#x6B;&#x5F;&#x32;"
      horiz-adv-x="448" d="M403.6 407.5H89.6C55.9 407.5 29.5 429.9 29.5 458.5C29.6 487 57.1 511 89.6 511H401.6C404.9000000000001 511 409.2000000000001 510.7 412.7000000000001 508.3C415.3000000000001 506.6 418.4000000000001 503.1 418.4000000000001 496.4C418.4000000000001 484.3 409.6 481.8 402.1 481.8H89.6C72.6 481.8 58.7 471.3 58.7 458.5S72.6 435.2 89.6 435.2H405.1C411.1 435.2 418.2000000000001 432.7 418.2000000000001 420.6C418.2 411.2 414.1 407.5 403.6 407.5zM403.6 1H104.8C84.6 1 65.7 8.8 51.5 23S29.5 56.1 29.5 76.3V457C29.5 465.5 35.6 471.6 44.1 471.6S58.7 465.4 58.7 457V76.3C58.7 51.3 79.8 30.2 104.8 30.2H405.1C411.4000000000001 30.2 418.2000000000001 26.4 418.2000000000001 15.6C418.2 7.1 412.1 1 403.6 1zM405.4 16.2C405.4 16.2 405.4 16.2 405.4 16.2S405.4 16.2 405.4 16.2zM403.6 1C395.2000000000001 1 389.1 7.1 389.1 15.5V417.3C389.1 423.6 392.9000000000001 430.3 403.6 430.3C407.2000000000001 430.3 418.1 430.3 418.1 417.3V15.5C418.1 7.1 412 1 403.6 1zM403.1 15.5M404.1 418.2L404.1 418.2L404.1 418.2zM297.4 204.3H148.8C140.3 204.3 134.2 210.4 134.2 218.9S140.3 233.5000000000001 148.8 233.5000000000001H297.4C305.9 233.5000000000001 312 227.4000000000001 312 218.9S305.9 204.3 297.4 204.3zM224.6 129.9C216.1 129.9 210 136 210 144.5V293.2C210 301.7 216.1 307.8 224.6 307.8S239.2 301.7 239.2 293.2V144.6C239.2 137.6 233 129.9 224.6 129.9z" />
    <glyph glyph-name="book-3"
      unicode="&#xEA15;"
      horiz-adv-x="448" d="M381 277H165V424H381V277zM195 307H351V394H195V307zM313 365.5H236V335.5H313V365.5zM155 142H404.3C401.4000000000001 123.2 401.2 98.4 404.3 78H155V46H436C442.6 46 448 51.4 448 58V66C448 72.6 442.6 78 436 78H432.7C428.7 98.2 429.5 127.7 433.1 143.8C441.8 147.4 448 156 448 166V488C448 501.3 437.3 512 424 512H80C35.8 512 0 476.2 0 432V126C0 85.5 30 52.1 69 46.8V78.7C19.7 85.1 19.7 134.9 69 141.3M96 174H80C62 174 45.4 168 32 158V432C32 458.5 53.5 480 80 480H96V174zM416 174H128V480H416V174zM69 141.3V78.7V46.8V0H155V46V78V142M125 31.9H99V46V78V137.1H125V78V46V31.9z" />
    <glyph glyph-name="book-3-1"
      unicode="&#x62;&#x6F;&#x6F;&#x6B;&#x5F;&#x33;"
      horiz-adv-x="448" d="M381 277H165V424H381V277zM195 307H351V394H195V307zM313 365.5H236V335.5H313V365.5zM155 142H404.3C401.4000000000001 123.2 401.2 98.4 404.3 78H155V46H436C442.6 46 448 51.4 448 58V66C448 72.6 442.6 78 436 78H432.7C428.7 98.2 429.5 127.7 433.1 143.8C441.8 147.4 448 156 448 166V488C448 501.3 437.3 512 424 512H80C35.8 512 0 476.2 0 432V126C0 85.5 30 52.1 69 46.8V78.7C19.7 85.1 19.7 134.9 69 141.3M96 174H80C62 174 45.4 168 32 158V432C32 458.5 53.5 480 80 480H96V174zM416 174H128V480H416V174zM69 141.3V78.7V46.8V0H155V46V78V142M125 31.9H99V46V78V137.1H125V78V46V31.9z" />
    <glyph glyph-name="book-4"
      unicode="&#xEA16;"
      horiz-adv-x="482" d="M80.0178744 96.002819L404.374433 96.002819C401.476379 77.196864 401.273402 52.404122 404.374433 31.997181L80.0178744 31.997181C16.0013196 31.997181 16.0013196 96.002819 80.0178744 96.002819zM32.0026392 432.0070466C32.0026392 458.5022461 53.5068791 480.0028186 80.0178744 480.0028186L96.019194 480.0028186L96.019194 128L80.0178744 128C62.0093421 128 45.4103693 122.001938 32.0026392 112.001409L32.0026392 432.0070466zM128.03311 128L416.079415 128L416.079415 480.0028186L128.03311 480.0028186L128.03311 128zM80.0178744 0L436.083884 0C442.6806220000001 0 448.093331 5.400511 448.093331 11.996124L448.093331 20.001057C448.093331 26.607945 442.6806220000001 31.997181 436.083884 31.997181L432.779876 31.997181C428.788004 52.20118 429.577357 81.695411 433.174553 97.795473C441.879993 101.40333 448.093331 109.994539 448.093331 120.006342L448.093331 133.479433L468.357158 133.479433C475.483891 133.479433 481.28 139.229455 481.28 146.321149L481.28 189.096803C481.28 196.188496 475.483891 201.927244 468.357158 201.927244L448.093331 201.927244L448.093331 270.375055L468.357158 270.375055C475.483891 270.375055 481.28 276.1250770000001 481.28 283.2054960000001L481.28 325.98115C481.28 333.0728440000001 475.483891 338.822866 468.357158 338.822866L448.093331 338.822866L448.093331 407.259403L468.357158 407.259403C475.483891 407.259403 481.28 413.0094248000001 481.28 420.1011186L481.28 462.8767727C481.28 469.9571919 475.483891 475.707214 468.357158 475.707214L448.093331 475.707214L448.093331 488.0077513C448.093331 501.3004492 437.380679 512 424.085713 512L80.0178744 512C35.8140881 512 0 476.2032943 0 432.0070466L0 80.004228C0 35.796706 35.8140881 0 80.0178744 0z" />
    <glyph glyph-name="book-4-1"
      unicode="&#x62;&#x6F;&#x6F;&#x6B;&#x5F;&#x34;"
      horiz-adv-x="482" d="M80.0178744 96.002819L404.374433 96.002819C401.476379 77.196864 401.273402 52.404122 404.374433 31.997181L80.0178744 31.997181C16.0013196 31.997181 16.0013196 96.002819 80.0178744 96.002819zM32.0026392 432.0070466C32.0026392 458.5022461 53.5068791 480.0028186 80.0178744 480.0028186L96.019194 480.0028186L96.019194 128L80.0178744 128C62.0093421 128 45.4103693 122.001938 32.0026392 112.001409L32.0026392 432.0070466zM128.03311 128L416.079415 128L416.079415 480.0028186L128.03311 480.0028186L128.03311 128zM80.0178744 0L436.083884 0C442.6806220000001 0 448.093331 5.400511 448.093331 11.996124L448.093331 20.001057C448.093331 26.607945 442.6806220000001 31.997181 436.083884 31.997181L432.779876 31.997181C428.788004 52.20118 429.577357 81.695411 433.174553 97.795473C441.879993 101.40333 448.093331 109.994539 448.093331 120.006342L448.093331 133.479433L468.357158 133.479433C475.483891 133.479433 481.28 139.229455 481.28 146.321149L481.28 189.096803C481.28 196.188496 475.483891 201.927244 468.357158 201.927244L448.093331 201.927244L448.093331 270.375055L468.357158 270.375055C475.483891 270.375055 481.28 276.1250770000001 481.28 283.2054960000001L481.28 325.98115C481.28 333.0728440000001 475.483891 338.822866 468.357158 338.822866L448.093331 338.822866L448.093331 407.259403L468.357158 407.259403C475.483891 407.259403 481.28 413.0094248000001 481.28 420.1011186L481.28 462.8767727C481.28 469.9571919 475.483891 475.707214 468.357158 475.707214L448.093331 475.707214L448.093331 488.0077513C448.093331 501.3004492 437.380679 512 424.085713 512L80.0178744 512C35.8140881 512 0 476.2032943 0 432.0070466L0 80.004228C0 35.796706 35.8140881 0 80.0178744 0z" />
    <glyph glyph-name="book-open"
      unicode="&#xEA17;"
      horiz-adv-x="576" d="M514.91 480H514.75C490.67 479.88 370 471.17 295.19 431.91C291.14 429.79 284.86 429.79 280.81 431.91C205.99 471.17 85.32 479.88 61.25 480H61.09C27.4 480 0 453.53 0 420.99V124.29C0 92.88 25.41 67.01 57.85 65.39C92.62 63.6300000000001 179.88 57.1300000000001 239.74 35.02C245.01 33.0700000000001 250.38 32.0000000000001 255.99 32.0000000000001H319.99C325.61 32.0000000000001 330.98 33.08 336.25 35.02C396.12 57.1300000000001 483.37 63.6300000000001 518.17 65.39C550.5799999999999 67.0100000000001 575.99 92.8700000000001 575.99 124.28V420.99C576 453.53 548.6 480 514.91 480zM272 79C272 70.39 264.86 63.87 256.74 63.87C254.97 63.87 253.15 64.18 251.35 64.85C188.9 88.06 102.36 95.18 59.44 97.36C44.05 98.13 32 109.96 32 124.29V420.99C32 435.88 45.06 447.99 61.09 447.99C80.37 447.89 183.55 440.61 253.2100000000001 409.7C264.4700000000001 404.7 271.85 393.95 271.8700000000001 381.86L272.0000000000001 281.54V79zM544 124.29C544 109.96 531.95 98.13 516.55 97.36C473.6299999999999 95.18 387.0899999999999 88.06 324.64 64.85C322.84 64.18 321.02 63.87 319.25 63.87C311.14 63.87 303.99 70.39 303.99 79V281.54L304.12 381.86C304.13 393.95 311.52 404.7 322.7800000000001 409.7C392.4400000000001 440.61 495.62 447.89 514.9000000000001 447.99C530.9300000000001 447.99 543.9900000000001 435.88 543.9900000000001 420.99V124.29z" />
    <glyph glyph-name="book-open-1"
      unicode="&#x62;&#x6F;&#x6F;&#x6B;&#x5F;&#x6F;&#x70;&#x65;&#x6E;"
      horiz-adv-x="576" d="M514.91 480H514.75C490.67 479.88 370 471.17 295.19 431.91C291.14 429.79 284.86 429.79 280.81 431.91C205.99 471.17 85.32 479.88 61.25 480H61.09C27.4 480 0 453.53 0 420.99V124.29C0 92.88 25.41 67.01 57.85 65.39C92.62 63.6300000000001 179.88 57.1300000000001 239.74 35.02C245.01 33.0700000000001 250.38 32.0000000000001 255.99 32.0000000000001H319.99C325.61 32.0000000000001 330.98 33.08 336.25 35.02C396.12 57.1300000000001 483.37 63.6300000000001 518.17 65.39C550.5799999999999 67.0100000000001 575.99 92.8700000000001 575.99 124.28V420.99C576 453.53 548.6 480 514.91 480zM272 79C272 70.39 264.86 63.87 256.74 63.87C254.97 63.87 253.15 64.18 251.35 64.85C188.9 88.06 102.36 95.18 59.44 97.36C44.05 98.13 32 109.96 32 124.29V420.99C32 435.88 45.06 447.99 61.09 447.99C80.37 447.89 183.55 440.61 253.2100000000001 409.7C264.4700000000001 404.7 271.85 393.95 271.8700000000001 381.86L272.0000000000001 281.54V79zM544 124.29C544 109.96 531.95 98.13 516.55 97.36C473.6299999999999 95.18 387.0899999999999 88.06 324.64 64.85C322.84 64.18 321.02 63.87 319.25 63.87C311.14 63.87 303.99 70.39 303.99 79V281.54L304.12 381.86C304.13 393.95 311.52 404.7 322.7800000000001 409.7C392.4400000000001 440.61 495.62 447.89 514.9000000000001 447.99C530.9300000000001 447.99 543.9900000000001 435.88 543.9900000000001 420.99V124.29z" />
    <glyph glyph-name="book-reader"
      unicode="&#xEA18;"
      horiz-adv-x="512" d="M459.91 319.98C459.21 319.98 458.52 319.96 457.85 319.93C408.05 317.09 317.3400000000001 306.93 256.01 272.36C194.68 306.93 103.96 317.09 54.17 319.93C53.5 319.97 52.81 319.98 52.11 319.98C31.71 319.99 0 305.64 0 269.78V91.73C0 65.04 21.25 43.03 48.34 41.61C82.75 39.8 168.9 32.53 225.34 4.14C230.02 1.77 235 0.64 240 0.3V0.03H242.27C242.36 0.03 242.45 1e-13 242.53 1e-13H269.4700000000001C269.56 1e-13 269.6500000000001 0.03 269.73 0.03H272V0.3C277 0.64 281.98 1.78 286.6600000000001 4.14C343.1 32.53 429.25 39.79 463.66 41.61C490.75 43.03 512 65.05 512 91.73V269.78C512 305.64 480.29 319.98 459.91 319.98zM240 32.65C239.91 32.69 239.82 32.67 239.72 32.72C180.13 62.6899999999999 95.29 71.17 50.02 73.56C39.92 74.0899999999999 32 82.0699999999999 32 91.73V269.78C32 275.8300000000001 33.77 279.78 37.93 282.98C42.4 286.42 48.4 287.99 52.33 287.99C89.34 285.88 181.6 277.41 240 244.63V32.65zM480 91.73C480 82.0699999999999 472.08 74.09 461.97 73.56C416.7000000000001 71.18 331.86 62.6999999999999 272.2100000000001 32.6899999999999C272.1400000000001 32.6499999999999 272.0700000000001 32.67 271.99 32.6399999999999V244.63C330.38 277.42 422.65 285.88 459.5 287.98L459.89 287.99C460.09 287.99 479.98 287.5 479.98 269.78V91.73zM256 320.01C309.02 320.01 352 362.99 352 416S309.02 512 256 512S160 469.02 160 416.01S202.98 320.01 256 320.01zM256 480C291.29 480 320 451.29 320 416S291.29 352 256 352S192 380.7100000000001 192 416S220.71 480 256 480z" />
    <glyph glyph-name="book-reader-1"
      unicode="&#x62;&#x6F;&#x6F;&#x6B;&#x5F;&#x72;&#x65;&#x61;&#x64;&#x65;&#x72;"
      horiz-adv-x="512" d="M459.91 319.98C459.21 319.98 458.52 319.96 457.85 319.93C408.05 317.09 317.3400000000001 306.93 256.01 272.36C194.68 306.93 103.96 317.09 54.17 319.93C53.5 319.97 52.81 319.98 52.11 319.98C31.71 319.99 0 305.64 0 269.78V91.73C0 65.04 21.25 43.03 48.34 41.61C82.75 39.8 168.9 32.53 225.34 4.14C230.02 1.77 235 0.64 240 0.3V0.03H242.27C242.36 0.03 242.45 1e-13 242.53 1e-13H269.4700000000001C269.56 1e-13 269.6500000000001 0.03 269.73 0.03H272V0.3C277 0.64 281.98 1.78 286.6600000000001 4.14C343.1 32.53 429.25 39.79 463.66 41.61C490.75 43.03 512 65.05 512 91.73V269.78C512 305.64 480.29 319.98 459.91 319.98zM240 32.65C239.91 32.69 239.82 32.67 239.72 32.72C180.13 62.6899999999999 95.29 71.17 50.02 73.56C39.92 74.0899999999999 32 82.0699999999999 32 91.73V269.78C32 275.8300000000001 33.77 279.78 37.93 282.98C42.4 286.42 48.4 287.99 52.33 287.99C89.34 285.88 181.6 277.41 240 244.63V32.65zM480 91.73C480 82.0699999999999 472.08 74.09 461.97 73.56C416.7000000000001 71.18 331.86 62.6999999999999 272.2100000000001 32.6899999999999C272.1400000000001 32.6499999999999 272.0700000000001 32.67 271.99 32.6399999999999V244.63C330.38 277.42 422.65 285.88 459.5 287.98L459.89 287.99C460.09 287.99 479.98 287.5 479.98 269.78V91.73zM256 320.01C309.02 320.01 352 362.99 352 416S309.02 512 256 512S160 469.02 160 416.01S202.98 320.01 256 320.01zM256 480C291.29 480 320 451.29 320 416S291.29 352 256 352S192 380.7100000000001 192 416S220.71 480 256 480z" />
    <glyph glyph-name="bookmark"
      unicode="&#xEA19;"
      horiz-adv-x="384" d="M336 512H48C21.49 512 0 490.51 0 464V0L192 112L384 0V464C384 490.51 362.51 512 336 512zM352 55.713L192 149.0460000000001L32 55.7130000000001V464C32 472.822 39.178 480 48 480H336C344.822 480 352 472.822 352 464V55.713z" />
    <glyph glyph-name="bookmark-1"
      unicode="&#x62;&#x6F;&#x6F;&#x6B;&#x6D;&#x61;&#x72;&#x6B;"
      horiz-adv-x="384" d="M336 512H48C21.49 512 0 490.51 0 464V0L192 112L384 0V464C384 490.51 362.51 512 336 512zM352 55.713L192 149.0460000000001L32 55.7130000000001V464C32 472.822 39.178 480 48 480H336C344.822 480 352 472.822 352 464V55.713z" />
    <glyph glyph-name="bookmark-solid"
      unicode="&#xEA1A;"
      horiz-adv-x="384" d="M0 0V464C0 490.51 21.49 512 48 512H336C362.51 512 384 490.51 384 464V0L192 112L0 0z" />
    <glyph glyph-name="bookmark-solid-1"
      unicode="&#x62;&#x6F;&#x6F;&#x6B;&#x6D;&#x61;&#x72;&#x6B;&#x5F;&#x73;&#x6F;&#x6C;&#x69;&#x64;"
      horiz-adv-x="384" d="M0 0V464C0 490.51 21.49 512 48 512H336C362.51 512 384 490.51 384 464V0L192 112L0 0z" />
    <glyph glyph-name="books"
      unicode="&#xEA1B;"
      horiz-adv-x="21" d="M20.2264 1.9536L14.0273 17.718047C13.9669 17.891016 13.8027 18 13.6283 18C13.5225 18 13.4536 17.9637891 13.2244 17.883633C12.9973 17.80418 12.8791 17.593945 13.0039 17.237461C12.4253 16.8968 10.9245 16.39055 10.3496 16.30863C10.3029 16.44152 10.2804 16.54137 10.1246 16.63312V16.875C10.1246 17.496211 9.62086 18 8.99965 18H5.62465C5.41512 18 5.2302 17.9272266 5.06215 17.827734C4.89445 17.9272266 4.70953 18 4.5 18H1.125C0.503789 18 0 17.496211 0 16.875V1.125C0 0.5038 0.503789 0 1.125 0H4.5C4.70953 0 4.89445 0.0728 5.0625 0.1723C5.23055 0.0724 5.41547 0 5.625 0H9C9.62121 0 10.125 0.5038 10.125 1.125V13.82063L15.4487 0.282C15.5095 0.109 15.6737 0 15.8477 0C15.9532 0 16.0221 0.0362 16.2517 0.1164C16.4781 0.1955 16.5973 0.4057 16.4721 0.7625C17.0508 1.1032 18.5516 1.6095 19.1264 1.6914C19.2547 1.3257 19.4825 1.2466 19.7023 1.3236L19.9677 1.4164C20.1867 1.4934 20.3031 1.7353 20.2264 1.9536zM4.5 1.125H1.125V3.375H4.5V1.125zM4.5 4.5H1.125V13.5H4.5V4.5zM4.5 14.625H1.125V16.875H4.5V14.625zM9 1.125H5.625V3.375H9V1.125zM9 4.5H5.625V13.5H9V4.5zM9 14.625H5.625V16.875H9V14.625zM16.142 1.7037L10.6801 15.3675C11.5668 15.53414 12.9305 16.08223 13.3344 16.29633L18.7963 2.6329C17.9093 2.4659 16.5459 1.9181 16.142 1.7037zM0 18H20.25V0H0V18z" />
    <glyph glyph-name="books-1"
      unicode="&#x62;&#x6F;&#x6F;&#x6B;&#x73;"
      horiz-adv-x="21" d="M20.2264 1.9536L14.0273 17.718047C13.9669 17.891016 13.8027 18 13.6283 18C13.5225 18 13.4536 17.9637891 13.2244 17.883633C12.9973 17.80418 12.8791 17.593945 13.0039 17.237461C12.4253 16.8968 10.9245 16.39055 10.3496 16.30863C10.3029 16.44152 10.2804 16.54137 10.1246 16.63312V16.875C10.1246 17.496211 9.62086 18 8.99965 18H5.62465C5.41512 18 5.2302 17.9272266 5.06215 17.827734C4.89445 17.9272266 4.70953 18 4.5 18H1.125C0.503789 18 0 17.496211 0 16.875V1.125C0 0.5038 0.503789 0 1.125 0H4.5C4.70953 0 4.89445 0.0728 5.0625 0.1723C5.23055 0.0724 5.41547 0 5.625 0H9C9.62121 0 10.125 0.5038 10.125 1.125V13.82063L15.4487 0.282C15.5095 0.109 15.6737 0 15.8477 0C15.9532 0 16.0221 0.0362 16.2517 0.1164C16.4781 0.1955 16.5973 0.4057 16.4721 0.7625C17.0508 1.1032 18.5516 1.6095 19.1264 1.6914C19.2547 1.3257 19.4825 1.2466 19.7023 1.3236L19.9677 1.4164C20.1867 1.4934 20.3031 1.7353 20.2264 1.9536zM4.5 1.125H1.125V3.375H4.5V1.125zM4.5 4.5H1.125V13.5H4.5V4.5zM4.5 14.625H1.125V16.875H4.5V14.625zM9 1.125H5.625V3.375H9V1.125zM9 4.5H5.625V13.5H9V4.5zM9 14.625H5.625V16.875H9V14.625zM16.142 1.7037L10.6801 15.3675C11.5668 15.53414 12.9305 16.08223 13.3344 16.29633L18.7963 2.6329C17.9093 2.4659 16.5459 1.9181 16.142 1.7037zM0 18H20.25V0H0V18z" />
    <glyph glyph-name="bullseye"
      unicode="&#xEA1C;"
      horiz-adv-x="512" d="M256 472C374.663 472 472 375.945 472 256C472 137.337 375.945 40 256 40C137.337 40 40 136.055 40 256C40 374.663 136.055 472 256 472M256 504C119.033 504 8 392.967 8 256S119.033 8 256 8S504 119.033 504 256S392.967 504 256 504zM256 376C322.319 376 376 322.33 376 256C376 189.681 322.33 136 256 136C189.681 136 136 189.67 136 256C136 322.319 189.67 376 256 376M256 408C172.053 408 104 339.947 104 256S172.053 104 256 104S408 172.053 408 256S339.947 408 256 408zM256 312C225.072 312 200 286.928 200 256S225.072 200 256 200S312 225.072 312 256S286.928 312 256 312z" />
    <glyph glyph-name="bullseye-1"
      unicode="&#x62;&#x75;&#x6C;&#x6C;&#x73;&#x65;&#x79;&#x65;"
      horiz-adv-x="512" d="M256 472C374.663 472 472 375.945 472 256C472 137.337 375.945 40 256 40C137.337 40 40 136.055 40 256C40 374.663 136.055 472 256 472M256 504C119.033 504 8 392.967 8 256S119.033 8 256 8S504 119.033 504 256S392.967 504 256 504zM256 376C322.319 376 376 322.33 376 256C376 189.681 322.33 136 256 136C189.681 136 136 189.67 136 256C136 322.319 189.67 376 256 376M256 408C172.053 408 104 339.947 104 256S172.053 104 256 104S408 172.053 408 256S339.947 408 256 408zM256 312C225.072 312 200 286.928 200 256S225.072 200 256 200S312 225.072 312 256S286.928 312 256 312z" />
    <glyph glyph-name="bullseye-arrow"
      unicode="&#xEA1D;"
      horiz-adv-x="496" d="M305.05 413.26L329.01 359.64L236.68 267.31C230.43 261.06 230.43 250.93 236.68 244.69C239.8 241.57 243.9 240 247.99 240S256.18 241.56 259.3 244.69L351.63 337.02L405.25 313.06A20.547 20.547 0 0 1 426.29 318.02L489.96 381.69C500.76 392.49 496.42 410.89 481.92 415.73L426.26 434.28L407.71 489.93C404.73 498.92 396.54 504 388.1600000000001 504C383.0200000000001 504 377.8 502.08 373.69 497.97L310.02 434.3A20.582 20.582 0 0 1 305.05 413.26zM383.23 462.25L395.93 424.16L400.99 408.98L416.17 403.92L454.26 391.22L409.33 346.29L360.24 368.2200000000001L338.31 417.31L383.23 462.25zM484.43 330.9L458.25 304.7200000000001C461.88 289.03 464 272.77 464 256C464 136.9 367.1 40 248 40S32 136.9 32 256S128.9 472 248 472C264.78 472 281.04 469.89 296.7200000000001 466.25L322.9000000000001 492.43A247.848 247.848 0 0 1 248 504C111.03 504 0 392.9700000000001 0 256S111.03 8 248 8S496 119.03 496 256C496 282.11 491.91 307.26 484.43 330.9zM274.7 403.15A53.056 53.056 0 0 0 272.02 417.5900000000001C264.12 418.75 256.23 420 248 420C157.35 420 84 346.64 84 256C84 165.35 157.36 92 248 92C338.65 92 412 165.36 412 256C412 264.35 410.75 272.35 409.55 280.36C404.6600000000001 280.5700000000001 399.79 281.15 395.14 282.7000000000001C393.02 283.4100000000001 396.16 282.0800000000001 374.45 291.77C377.7 280.32 380 268.48 380 256C380 183.21 320.79 124 248 124S116 183.21 116 256S175.21 388 248 388C260.48 388 272.32 385.7 283.77 382.45C274.08 404.15 275.41 401.01 274.7 403.15zM248 336C203.89 336 168 300.11 168 256S203.89 176 248 176S328 211.89 328 256C328 259.77 327.39 263.38 326.89 267.01L281.94 222.06L281.93 222.07C273.23 213.38 261.23 208 248 208C221.53 208 200 229.53 200 256C200 269.23 205.38 281.23 214.07 289.93L214.06 289.94L259.01 334.89C255.38 335.39 251.77 336 248 336z" />
    <glyph glyph-name="bullseye-arrow-1"
      unicode="&#x62;&#x75;&#x6C;&#x6C;&#x73;&#x65;&#x79;&#x65;&#x5F;&#x61;&#x72;&#x72;&#x6F;&#x77;"
      horiz-adv-x="496" d="M305.05 413.26L329.01 359.64L236.68 267.31C230.43 261.06 230.43 250.93 236.68 244.69C239.8 241.57 243.9 240 247.99 240S256.18 241.56 259.3 244.69L351.63 337.02L405.25 313.06A20.547 20.547 0 0 1 426.29 318.02L489.96 381.69C500.76 392.49 496.42 410.89 481.92 415.73L426.26 434.28L407.71 489.93C404.73 498.92 396.54 504 388.1600000000001 504C383.0200000000001 504 377.8 502.08 373.69 497.97L310.02 434.3A20.582 20.582 0 0 1 305.05 413.26zM383.23 462.25L395.93 424.16L400.99 408.98L416.17 403.92L454.26 391.22L409.33 346.29L360.24 368.2200000000001L338.31 417.31L383.23 462.25zM484.43 330.9L458.25 304.7200000000001C461.88 289.03 464 272.77 464 256C464 136.9 367.1 40 248 40S32 136.9 32 256S128.9 472 248 472C264.78 472 281.04 469.89 296.7200000000001 466.25L322.9000000000001 492.43A247.848 247.848 0 0 1 248 504C111.03 504 0 392.9700000000001 0 256S111.03 8 248 8S496 119.03 496 256C496 282.11 491.91 307.26 484.43 330.9zM274.7 403.15A53.056 53.056 0 0 0 272.02 417.5900000000001C264.12 418.75 256.23 420 248 420C157.35 420 84 346.64 84 256C84 165.35 157.36 92 248 92C338.65 92 412 165.36 412 256C412 264.35 410.75 272.35 409.55 280.36C404.6600000000001 280.5700000000001 399.79 281.15 395.14 282.7000000000001C393.02 283.4100000000001 396.16 282.0800000000001 374.45 291.77C377.7 280.32 380 268.48 380 256C380 183.21 320.79 124 248 124S116 183.21 116 256S175.21 388 248 388C260.48 388 272.32 385.7 283.77 382.45C274.08 404.15 275.41 401.01 274.7 403.15zM248 336C203.89 336 168 300.11 168 256S203.89 176 248 176S328 211.89 328 256C328 259.77 327.39 263.38 326.89 267.01L281.94 222.06L281.93 222.07C273.23 213.38 261.23 208 248 208C221.53 208 200 229.53 200 256C200 269.23 205.38 281.23 214.07 289.93L214.06 289.94L259.01 334.89C255.38 335.39 251.77 336 248 336z" />
    <glyph glyph-name="bullseye-pointer"
      unicode="&#xEA1E;"
      horiz-adv-x="496" d="M242.16 271.3300000000001L27.98 210.45C12.81 206.14 11.03 185.35 25.25 178.53L93.72 145.64L4.55 56.47C-1.52 50.41 -1.52 40.57 4.55 34.51L26.51 12.55C32.58 6.49 42.41 6.49 48.47 12.55L137.64 101.72L170.53 33.25C177.36 19.03 198.14 20.81 202.45 35.98L263.32 250.1600000000001C267 263.0700000000001 255.07 274.99 242.16 271.3300000000001zM269.52 154.3L255.44 104.75C335.92 108.7 400 174.54 400 256C400 340.02 332 408 248 408C166.53 408 100.7 343.9 96.75 263.43L146.3 277.51C156.25 324.56 198.04 360 248 360C305.35 360 352 313.35 352 256C352 206.04 316.56 164.25 269.52 154.3zM248 504C111.03 504 0 392.9700000000001 0 256C0 248.7 0.47 241.51 1.09 234.37C4.55 236.3400000000001 8.09 238.24 12.08 239.37L48.32 249.67C48.25 251.79 48 253.86 48 256C48 366.2800000000001 137.72 456 248 456S448 366.2800000000001 448 256S358.28 56 248 56C245.86 56 243.79 56.25 241.67 56.32L231.37 20.08C230.23 16.06 228.22 12.58 226.23 9.1C233.42 8.47 240.65 7.9999999999999 248 7.9999999999999C384.9700000000001 7.9999999999999 496 119.03 496 256S384.9700000000001 504 248 504z" />
    <glyph glyph-name="bullseye-pointer-1"
      unicode="&#x62;&#x75;&#x6C;&#x6C;&#x73;&#x65;&#x79;&#x65;&#x5F;&#x70;&#x6F;&#x69;&#x6E;&#x74;&#x65;&#x72;"
      horiz-adv-x="496" d="M242.16 271.3300000000001L27.98 210.45C12.81 206.14 11.03 185.35 25.25 178.53L93.72 145.64L4.55 56.47C-1.52 50.41 -1.52 40.57 4.55 34.51L26.51 12.55C32.58 6.49 42.41 6.49 48.47 12.55L137.64 101.72L170.53 33.25C177.36 19.03 198.14 20.81 202.45 35.98L263.32 250.1600000000001C267 263.0700000000001 255.07 274.99 242.16 271.3300000000001zM269.52 154.3L255.44 104.75C335.92 108.7 400 174.54 400 256C400 340.02 332 408 248 408C166.53 408 100.7 343.9 96.75 263.43L146.3 277.51C156.25 324.56 198.04 360 248 360C305.35 360 352 313.35 352 256C352 206.04 316.56 164.25 269.52 154.3zM248 504C111.03 504 0 392.9700000000001 0 256C0 248.7 0.47 241.51 1.09 234.37C4.55 236.3400000000001 8.09 238.24 12.08 239.37L48.32 249.67C48.25 251.79 48 253.86 48 256C48 366.2800000000001 137.72 456 248 456S448 366.2800000000001 448 256S358.28 56 248 56C245.86 56 243.79 56.25 241.67 56.32L231.37 20.08C230.23 16.06 228.22 12.58 226.23 9.1C233.42 8.47 240.65 7.9999999999999 248 7.9999999999999C384.9700000000001 7.9999999999999 496 119.03 496 256S384.9700000000001 504 248 504z" />
    <glyph glyph-name="calendar"
      unicode="&#xEA1F;"
      horiz-adv-x="448" d="M400 448H352V500C352 506.627 346.627 512 340 512H332C325.373 512 320 506.627 320 500V448H128V500C128 506.627 122.627 512 116 512H108C101.373 512 96 506.627 96 500V448H48C21.49 448 0 426.51 0 400V48C0 21.49 21.49 0 48 0H400C426.51 0 448 21.49 448 48V400C448 426.51 426.51 448 400 448zM48 416H400C408.822 416 416 408.822 416 400V352H32V400C32 408.822 39.178 416 48 416zM400 32H48C39.178 32 32 39.178 32 48V320H416V48C416 39.178 408.822 32 400 32z" />
    <glyph glyph-name="calendar-1"
      unicode="&#x63;&#x61;&#x6C;&#x65;&#x6E;&#x64;&#x61;&#x72;"
      horiz-adv-x="448" d="M400 448H352V500C352 506.627 346.627 512 340 512H332C325.373 512 320 506.627 320 500V448H128V500C128 506.627 122.627 512 116 512H108C101.373 512 96 506.627 96 500V448H48C21.49 448 0 426.51 0 400V48C0 21.49 21.49 0 48 0H400C426.51 0 448 21.49 448 48V400C448 426.51 426.51 448 400 448zM48 416H400C408.822 416 416 408.822 416 400V352H32V400C32 408.822 39.178 416 48 416zM400 32H48C39.178 32 32 39.178 32 48V320H416V48C416 39.178 408.822 32 400 32z" />
    <glyph glyph-name="calendar-alt"
      unicode="&#xEA20;"
      horiz-adv-x="448" d="M400 448H352V500C352 506.6 346.6 512 340 512H332C325.4 512 320 506.6 320 500V448H128V500C128 506.6 122.6 512 116 512H108C101.4 512 96 506.6 96 500V448H48C21.5 448 0 426.5 0 400V48C0 21.5 21.5 0 48 0H400C426.5 0 448 21.5 448 48V400C448 426.5 426.5 448 400 448zM48 416H400C408.8 416 416 408.8 416 400V352H32V400C32 408.8 39.2 416 48 416zM400 32H48C39.2 32 32 39.2 32 48V320H416V48C416 39.2 408.8 32 400 32zM148 192H108C101.4 192 96 197.4 96 204V244C96 250.6 101.4 256 108 256H148C154.6 256 160 250.6 160 244V204C160 197.4 154.6 192 148 192zM244 192H204C197.4 192 192 197.4 192 204V244C192 250.6 197.4 256 204 256H244C250.6 256 256 250.6 256 244V204C256 197.4 250.6 192 244 192zM340 192H300C293.4 192 288 197.4 288 204V244C288 250.6 293.4 256 300 256H340C346.6 256 352 250.6 352 244V204C352 197.4 346.6 192 340 192zM244 96H204C197.4 96 192 101.4 192 108V148C192 154.6 197.4 160 204 160H244C250.6 160 256 154.6 256 148V108C256 101.4 250.6 96 244 96zM148 96H108C101.4 96 96 101.4 96 108V148C96 154.6 101.4 160 108 160H148C154.6 160 160 154.6 160 148V108C160 101.4 154.6 96 148 96zM340 96H300C293.4 96 288 101.4 288 108V148C288 154.6 293.4 160 300 160H340C346.6 160 352 154.6 352 148V108C352 101.4 346.6 96 340 96z" />
    <glyph glyph-name="calendar-alt-1"
      unicode="&#x63;&#x61;&#x6C;&#x65;&#x6E;&#x64;&#x61;&#x72;&#x5F;&#x61;&#x6C;&#x74;"
      horiz-adv-x="448" d="M400 448H352V500C352 506.6 346.6 512 340 512H332C325.4 512 320 506.6 320 500V448H128V500C128 506.6 122.6 512 116 512H108C101.4 512 96 506.6 96 500V448H48C21.5 448 0 426.5 0 400V48C0 21.5 21.5 0 48 0H400C426.5 0 448 21.5 448 48V400C448 426.5 426.5 448 400 448zM48 416H400C408.8 416 416 408.8 416 400V352H32V400C32 408.8 39.2 416 48 416zM400 32H48C39.2 32 32 39.2 32 48V320H416V48C416 39.2 408.8 32 400 32zM148 192H108C101.4 192 96 197.4 96 204V244C96 250.6 101.4 256 108 256H148C154.6 256 160 250.6 160 244V204C160 197.4 154.6 192 148 192zM244 192H204C197.4 192 192 197.4 192 204V244C192 250.6 197.4 256 204 256H244C250.6 256 256 250.6 256 244V204C256 197.4 250.6 192 244 192zM340 192H300C293.4 192 288 197.4 288 204V244C288 250.6 293.4 256 300 256H340C346.6 256 352 250.6 352 244V204C352 197.4 346.6 192 340 192zM244 96H204C197.4 96 192 101.4 192 108V148C192 154.6 197.4 160 204 160H244C250.6 160 256 154.6 256 148V108C256 101.4 250.6 96 244 96zM148 96H108C101.4 96 96 101.4 96 108V148C96 154.6 101.4 160 108 160H148C154.6 160 160 154.6 160 148V108C160 101.4 154.6 96 148 96zM340 96H300C293.4 96 288 101.4 288 108V148C288 154.6 293.4 160 300 160H340C346.6 160 352 154.6 352 148V108C352 101.4 346.6 96 340 96z" />
    <glyph glyph-name="calendar-check"
      unicode="&#xEA21;"
      horiz-adv-x="448" d="M400 448H352V500C352 506.627 346.627 512 340 512H332C325.373 512 320 506.627 320 500V448H128V500C128 506.627 122.627 512 116 512H108C101.373 512 96 506.627 96 500V448H48C21.49 448 0 426.51 0 400V48C0 21.49 21.49 0 48 0H400C426.51 0 448 21.49 448 48V400C448 426.51 426.51 448 400 448zM48 416H400C408.822 416 416 408.822 416 400V352H32V400C32 408.822 39.178 416 48 416zM400 32H48C39.178 32 32 39.178 32 48V320H416V48C416 39.178 408.822 32 400 32zM333.533 226.937L198.742 93.227C194.042 88.564 186.454 88.585 181.779 93.273L114.421 160.825C109.738 165.522 109.749 173.126 114.445 177.81L122.95 186.29C127.647 190.973 135.251 190.9620000000001 139.934 186.266L190.376 135.679L308.158 252.516C312.867 257.187 320.471 257.1570000000001 325.1430000000001 252.4480000000001L333.6010000000001 243.9210000000001C338.2730000000001 239.2120000000001 338.2420000000001 231.6080000000001 333.5330000000001 226.9370000000001z" />
    <glyph glyph-name="calendar-check-1"
      unicode="&#x63;&#x61;&#x6C;&#x65;&#x6E;&#x64;&#x61;&#x72;&#x5F;&#x63;&#x68;&#x65;&#x63;&#x6B;"
      horiz-adv-x="448" d="M400 448H352V500C352 506.627 346.627 512 340 512H332C325.373 512 320 506.627 320 500V448H128V500C128 506.627 122.627 512 116 512H108C101.373 512 96 506.627 96 500V448H48C21.49 448 0 426.51 0 400V48C0 21.49 21.49 0 48 0H400C426.51 0 448 21.49 448 48V400C448 426.51 426.51 448 400 448zM48 416H400C408.822 416 416 408.822 416 400V352H32V400C32 408.822 39.178 416 48 416zM400 32H48C39.178 32 32 39.178 32 48V320H416V48C416 39.178 408.822 32 400 32zM333.533 226.937L198.742 93.227C194.042 88.564 186.454 88.585 181.779 93.273L114.421 160.825C109.738 165.522 109.749 173.126 114.445 177.81L122.95 186.29C127.647 190.973 135.251 190.9620000000001 139.934 186.266L190.376 135.679L308.158 252.516C312.867 257.187 320.471 257.1570000000001 325.1430000000001 252.4480000000001L333.6010000000001 243.9210000000001C338.2730000000001 239.2120000000001 338.2420000000001 231.6080000000001 333.5330000000001 226.9370000000001z" />
    <glyph glyph-name="camera"
      unicode="&#xEA22;"
      horiz-adv-x="512" d="M324.3 448C327.6 448 330.6 445.9 331.8 442.8L353.9000000000001 384H464C472.8 384 480 376.8 480 368V80C480 71.2 472.8 64 464 64H48C39.2 64 32 71.2 32 80V368C32 376.8 39.2 384 48 384H158.2L178.3 437.6C180.6 443.8 186.6 448 193.3 448H324.3M324.3 480H193.3C173.3 480 155.4 467.6 148.4 448.9L136 416H48C21.5 416 0 394.5 0 368V80C0 53.5 21.5 32 48 32H464C490.5 32 512 53.5 512 80V368C512 394.5 490.5 416 464 416H376L361.7 454C355.9 469.7 341 480 324.3 480zM256 104C189.8 104 136 157.8 136 224S189.8 344 256 344S376 290.2 376 224S322.2 104 256 104zM256 312C207.5 312 168 272.5 168 224S207.5 136 256 136S344 175.5 344 224S304.5 312 256 312z" />
    <glyph glyph-name="camera-1"
      unicode="&#x63;&#x61;&#x6D;&#x65;&#x72;&#x61;"
      horiz-adv-x="512" d="M324.3 448C327.6 448 330.6 445.9 331.8 442.8L353.9000000000001 384H464C472.8 384 480 376.8 480 368V80C480 71.2 472.8 64 464 64H48C39.2 64 32 71.2 32 80V368C32 376.8 39.2 384 48 384H158.2L178.3 437.6C180.6 443.8 186.6 448 193.3 448H324.3M324.3 480H193.3C173.3 480 155.4 467.6 148.4 448.9L136 416H48C21.5 416 0 394.5 0 368V80C0 53.5 21.5 32 48 32H464C490.5 32 512 53.5 512 80V368C512 394.5 490.5 416 464 416H376L361.7 454C355.9 469.7 341 480 324.3 480zM256 104C189.8 104 136 157.8 136 224S189.8 344 256 344S376 290.2 376 224S322.2 104 256 104zM256 312C207.5 312 168 272.5 168 224S207.5 136 256 136S344 175.5 344 224S304.5 312 256 312z" />
    <glyph glyph-name="caret-down"
      unicode="&#xEA23;"
      horiz-adv-x="320" d="M287.968 352H32.038C3.613 352 -10.729 317.512 9.411 297.373L137.373 169.373C149.869 156.877 170.131 156.876 182.628 169.373L310.596 297.373C330.695 317.472 316.45 352 287.968 352zM160 192L32 320H288L160 192z" />
    <glyph glyph-name="caret-down-1"
      unicode="&#x63;&#x61;&#x72;&#x65;&#x74;&#x5F;&#x64;&#x6F;&#x77;&#x6E;"
      horiz-adv-x="320" d="M287.968 352H32.038C3.613 352 -10.729 317.512 9.411 297.373L137.373 169.373C149.869 156.877 170.131 156.876 182.628 169.373L310.596 297.373C330.695 317.472 316.45 352 287.968 352zM160 192L32 320H288L160 192z" />
    <glyph glyph-name="caret-down-solid"
      unicode="&#xEA24;"
      horiz-adv-x="320" d="M31.3 320H288.6C306.4000000000001 320 315.3 298.5 302.7000000000001 285.9L174.1 157.2C166.3 149.4 153.6 149.4 145.8 157.2L17.2 285.9C4.6 298.5 13.5 320 31.3 320z" />
    <glyph glyph-name="caret-down-solid-1"
      unicode="&#x63;&#x61;&#x72;&#x65;&#x74;&#x5F;&#x64;&#x6F;&#x77;&#x6E;&#x5F;&#x73;&#x6F;&#x6C;&#x69;&#x64;"
      horiz-adv-x="320" d="M31.3 320H288.6C306.4000000000001 320 315.3 298.5 302.7000000000001 285.9L174.1 157.2C166.3 149.4 153.6 149.4 145.8 157.2L17.2 285.9C4.6 298.5 13.5 320 31.3 320z" />
    <glyph glyph-name="caret-left"
      unicode="&#xEA25;"
      horiz-adv-x="192" d="M192 128.032V383.962C192 412.387 157.512 426.729 137.373 406.589L9.373 278.627C-3.123 266.131 -3.124 245.869 9.373 233.372L137.373 105.4039999999999C157.472 85.305 192 99.55 192 128.032zM32 256L160 384V128L32 256z" />
    <glyph glyph-name="caret-left-1"
      unicode="&#x63;&#x61;&#x72;&#x65;&#x74;&#x5F;&#x6C;&#x65;&#x66;&#x74;"
      horiz-adv-x="192" d="M192 128.032V383.962C192 412.387 157.512 426.729 137.373 406.589L9.373 278.627C-3.123 266.131 -3.124 245.869 9.373 233.372L137.373 105.4039999999999C157.472 85.305 192 99.55 192 128.032zM32 256L160 384V128L32 256z" />
    <glyph glyph-name="caret-left-solid"
      unicode="&#xEA26;"
      horiz-adv-x="192" d="M192 384.6620000000001V127.338C192 109.52 170.457 100.597 157.858 113.196L29.196 241.858C21.386 249.668 21.386 262.332 29.196 270.142L157.858 398.804C170.457 411.404 192 402.48 192 384.6620000000001z" />
    <glyph glyph-name="caret-left-solid-1"
      unicode="&#x63;&#x61;&#x72;&#x65;&#x74;&#x5F;&#x6C;&#x65;&#x66;&#x74;&#x5F;&#x73;&#x6F;&#x6C;&#x69;&#x64;"
      horiz-adv-x="192" d="M192 384.6620000000001V127.338C192 109.52 170.457 100.597 157.858 113.196L29.196 241.858C21.386 249.668 21.386 262.332 29.196 270.142L157.858 398.804C170.457 411.404 192 402.48 192 384.6620000000001z" />
    <glyph glyph-name="caret-right"
      unicode="&#xEA27;"
      horiz-adv-x="192" d="M0 383.968V128.038C0 99.613 34.488 85.271 54.627 105.411L182.627 233.373C195.123 245.869 195.124 266.131 182.627 278.628L54.627 406.596C34.528 426.695 0 412.45 0 383.968zM160 256L32 128V384L160 256z" />
    <glyph glyph-name="caret-right-1"
      unicode="&#x63;&#x61;&#x72;&#x65;&#x74;&#x5F;&#x72;&#x69;&#x67;&#x68;&#x74;"
      horiz-adv-x="192" d="M0 383.968V128.038C0 99.613 34.488 85.271 54.627 105.411L182.627 233.373C195.123 245.869 195.124 266.131 182.627 278.628L54.627 406.596C34.528 426.695 0 412.45 0 383.968zM160 256L32 128V384L160 256z" />
    <glyph glyph-name="caret-right-solid"
      unicode="&#xEA28;"
      horiz-adv-x="192" d="M0 127.338V384.6620000000001C0 402.48 21.543 411.403 34.142 398.804L162.804 270.142C170.614 262.332 170.614 249.668 162.804 241.858L34.142 113.196C21.543 100.596 0 109.52 0 127.338z" />
    <glyph glyph-name="caret-right-solid-1"
      unicode="&#x63;&#x61;&#x72;&#x65;&#x74;&#x5F;&#x72;&#x69;&#x67;&#x68;&#x74;&#x5F;&#x73;&#x6F;&#x6C;&#x69;&#x64;"
      horiz-adv-x="192" d="M0 127.338V384.6620000000001C0 402.48 21.543 411.403 34.142 398.804L162.804 270.142C170.614 262.332 170.614 249.668 162.804 241.858L34.142 113.196C21.543 100.596 0 109.52 0 127.338z" />
    <glyph glyph-name="caret-up"
      unicode="&#xEA29;"
      horiz-adv-x="320" d="M32.032 160H287.962C316.387 160 330.729 194.488 310.589 214.627L182.627 342.627C170.131 355.1230000000001 149.869 355.124 137.372 342.627L9.404 214.627C-10.695 194.528 3.55 160 32.032 160zM160 320L288 192H32L160 320z" />
    <glyph glyph-name="caret-up-1"
      unicode="&#x63;&#x61;&#x72;&#x65;&#x74;&#x5F;&#x75;&#x70;"
      horiz-adv-x="320" d="M32.032 160H287.962C316.387 160 330.729 194.488 310.589 214.627L182.627 342.627C170.131 355.1230000000001 149.869 355.124 137.372 342.627L9.404 214.627C-10.695 194.528 3.55 160 32.032 160zM160 320L288 192H32L160 320z" />
    <glyph glyph-name="chalkboard-teacher"
      unicode="&#xEA2A;"
      horiz-adv-x="640" d="M608 512H192C174.33 512 160 497.67 160 480V384C106.98 384 64 341.02 64 288S106.98 192 160 192S256 234.98 256 288C256 329.74 229.2 364.9 192 378.12V480H608V128H544V192C544 209.67 529.67 224 512 224H384C366.33 224 352 209.67 352 192V128H305.3400000000001C304.7500000000001 128.94 304.3100000000001 129.96 303.6900000000001 130.88C286.4400000000001 156.5 257.0200000000001 169.99 226.7900000000001 169.99C199 169.98 192.02 160 160 160C128.03 160 121.05 169.98 93.21 169.98C62.98 169.98 33.56 156.5 16.31 130.87C6.01 115.58 0 97.16 0 77.33V40C0 17.91 17.91 0 40 0H280C302.09 0 320 17.91 320 40V77.33C320 83.74 319.1600000000001 89.93 317.96 96H608C625.67 96 640 110.33 640 128V480C640 497.67 625.67 512 608 512zM224 288C224 252.71 195.29 224 160 224S96 252.71 96 288S124.71 352 160 352S224 323.29 224 288zM288 40C288 35.59 284.4100000000001 32 280 32H40C35.59 32 32 35.59 32 40V77.33C32 90.12 35.75 102.46 42.85 113C53.38 128.64 72.2 137.98 93.21 137.98C115.01 137.98 123.2 128 160 128C196.79 128 205.01 137.98 226.79 137.98C247.79 137.98 266.62 128.6400000000001 277.1500000000001 113C284.2500000000001 102.46 288.0000000000001 90.12 288.0000000000001 77.33V40zM512 128H384V192H512V128z" />
    <glyph glyph-name="chalkboard-teacher-1"
      unicode="&#x63;&#x68;&#x61;&#x6C;&#x6B;&#x62;&#x6F;&#x61;&#x72;&#x64;&#x5F;&#x74;&#x65;&#x61;&#x63;&#x68;&#x65;&#x72;"
      horiz-adv-x="640" d="M608 512H192C174.33 512 160 497.67 160 480V384C106.98 384 64 341.02 64 288S106.98 192 160 192S256 234.98 256 288C256 329.74 229.2 364.9 192 378.12V480H608V128H544V192C544 209.67 529.67 224 512 224H384C366.33 224 352 209.67 352 192V128H305.3400000000001C304.7500000000001 128.94 304.3100000000001 129.96 303.6900000000001 130.88C286.4400000000001 156.5 257.0200000000001 169.99 226.7900000000001 169.99C199 169.98 192.02 160 160 160C128.03 160 121.05 169.98 93.21 169.98C62.98 169.98 33.56 156.5 16.31 130.87C6.01 115.58 0 97.16 0 77.33V40C0 17.91 17.91 0 40 0H280C302.09 0 320 17.91 320 40V77.33C320 83.74 319.1600000000001 89.93 317.96 96H608C625.67 96 640 110.33 640 128V480C640 497.67 625.67 512 608 512zM224 288C224 252.71 195.29 224 160 224S96 252.71 96 288S124.71 352 160 352S224 323.29 224 288zM288 40C288 35.59 284.4100000000001 32 280 32H40C35.59 32 32 35.59 32 40V77.33C32 90.12 35.75 102.46 42.85 113C53.38 128.64 72.2 137.98 93.21 137.98C115.01 137.98 123.2 128 160 128C196.79 128 205.01 137.98 226.79 137.98C247.79 137.98 266.62 128.6400000000001 277.1500000000001 113C284.2500000000001 102.46 288.0000000000001 90.12 288.0000000000001 77.33V40zM512 128H384V192H512V128z" />
    <glyph glyph-name="chart-bar"
      unicode="&#xEA2B;"
      horiz-adv-x="512" d="M500 96C506.6 96 512 90.6 512 84V76C512 69.4 506.6 64 500 64H12C5.4 64 0 69.4 0 76V436C0 442.6 5.4 448 12 448H20C26.6 448 32 442.6 32 436V96H500zM160 166V250C160 253.3 157.3 256 154 256H134C130.7 256 128 253.3 128 250V166C128 162.7 130.7 160 134 160H154C157.3 160 160 162.7 160 166zM448 166V410C448 413.3 445.3 416 442 416H422C418.7 416 416 413.3 416 410V166C416 162.7 418.7 160 422 160H442C445.3 160 448 162.7 448 166zM352 166V314C352 317.3 349.3 320 346 320H326C322.7 320 320 317.3 320 314V166C320 162.7 322.7 160 326 160H346C349.3 160 352 162.7 352 166zM256 166V378C256 381.3 253.3 384 250 384H230C226.7 384 224 381.3 224 378V166C224 162.7 226.7 160 230 160H250C253.3 160 256 162.7 256 166z" />
    <glyph glyph-name="chart-bar-1"
      unicode="&#x63;&#x68;&#x61;&#x72;&#x74;&#x5F;&#x62;&#x61;&#x72;"
      horiz-adv-x="512" d="M500 96C506.6 96 512 90.6 512 84V76C512 69.4 506.6 64 500 64H12C5.4 64 0 69.4 0 76V436C0 442.6 5.4 448 12 448H20C26.6 448 32 442.6 32 436V96H500zM160 166V250C160 253.3 157.3 256 154 256H134C130.7 256 128 253.3 128 250V166C128 162.7 130.7 160 134 160H154C157.3 160 160 162.7 160 166zM448 166V410C448 413.3 445.3 416 442 416H422C418.7 416 416 413.3 416 410V166C416 162.7 418.7 160 422 160H442C445.3 160 448 162.7 448 166zM352 166V314C352 317.3 349.3 320 346 320H326C322.7 320 320 317.3 320 314V166C320 162.7 322.7 160 326 160H346C349.3 160 352 162.7 352 166zM256 166V378C256 381.3 253.3 384 250 384H230C226.7 384 224 381.3 224 378V166C224 162.7 226.7 160 230 160H250C253.3 160 256 162.7 256 166z" />
    <glyph glyph-name="chart-line"
      unicode="&#xEA2C;"
      horiz-adv-x="512" d="M500 96C506.6 96 512 90.6 512 84V76C512 69.4 506.6 64 500 64H12C5.4 64 0 69.4 0 76V436C0 442.6 5.4 448 12 448H20C26.6 448 32 442.6 32 436V96H500zM480 391V297C480 267.7 444.4 253 423.7 273.7L388 309.4L292.2 213.6C289.9 211.3 286.1 211.3 283.7 213.6L224.3 273L111.8 153.4C109.5 151 105.7 150.9 103.3 153.1L88.7 166.8C86.3 169.1 86.2 172.9 88.4 175.3L219.4 314.4C221.7 316.9 225.6 316.9 228 314.5L288 254.5L365.4 331.9L329.7 367.6C308.9 388.4 323.7 423.9 353 423.9H447C465.2 424 480 409.2 480 391zM451.2 391C451.2 393.3 449.4 395.1 447.1 395.1H353.1C349.4 395.1 347.6 390.6 350.2 388.1L444.2 294.1C446.8 291.5 451.2 293.3 451.2 297V391z" />
    <glyph glyph-name="chart-line-1"
      unicode="&#x63;&#x68;&#x61;&#x72;&#x74;&#x5F;&#x6C;&#x69;&#x6E;&#x65;"
      horiz-adv-x="512" d="M500 96C506.6 96 512 90.6 512 84V76C512 69.4 506.6 64 500 64H12C5.4 64 0 69.4 0 76V436C0 442.6 5.4 448 12 448H20C26.6 448 32 442.6 32 436V96H500zM480 391V297C480 267.7 444.4 253 423.7 273.7L388 309.4L292.2 213.6C289.9 211.3 286.1 211.3 283.7 213.6L224.3 273L111.8 153.4C109.5 151 105.7 150.9 103.3 153.1L88.7 166.8C86.3 169.1 86.2 172.9 88.4 175.3L219.4 314.4C221.7 316.9 225.6 316.9 228 314.5L288 254.5L365.4 331.9L329.7 367.6C308.9 388.4 323.7 423.9 353 423.9H447C465.2 424 480 409.2 480 391zM451.2 391C451.2 393.3 449.4 395.1 447.1 395.1H353.1C349.4 395.1 347.6 390.6 350.2 388.1L444.2 294.1C446.8 291.5 451.2 293.3 451.2 297V391z" />
    <glyph glyph-name="chart-pie"
      unicode="&#xEA2D;"
      horiz-adv-x="512" d="M256 499.7V288H468C474.9 288 480.4 293.8 480 300.7C473.6 414.1 382.3 505.3 268.7 511.7C261.8 512.1 256 506.6 256 499.7zM288 477.7C368.3 464.3 432.3 400.4 445.7 320H288V477.7zM280 256L430 105.8C434.9 100.9 442.9 101.2 447.5 106.3C482.4 145.3 501.3 194.3 504 243.3C504.4 250.2 498.9 256 492 256H280zM436.9 144.2L357.3 224.1H469.6999999999999C464.8999999999999 195.5 453.6999999999999 167.8 436.8999999999999 144.2000000000001zM224 256V467.8C224 474.7 218.2 480.2 211.2 479.8C93.6 473.1 0.2 375.5 0 256.4C-0.3 63.3 229.6 -39.6 373.1 88.4C378.3 93 378.5 101 373.6 105.9L224 256zM32 256C32 352.6 102.8 430.6 192 445.5V256C192 239.7 189.6 245.2 201.4 233.4L335.3 99C209.3 9.1 32 100 32 256z" />
    <glyph glyph-name="chart-pie-1"
      unicode="&#x63;&#x68;&#x61;&#x72;&#x74;&#x5F;&#x70;&#x69;&#x65;"
      horiz-adv-x="512" d="M256 499.7V288H468C474.9 288 480.4 293.8 480 300.7C473.6 414.1 382.3 505.3 268.7 511.7C261.8 512.1 256 506.6 256 499.7zM288 477.7C368.3 464.3 432.3 400.4 445.7 320H288V477.7zM280 256L430 105.8C434.9 100.9 442.9 101.2 447.5 106.3C482.4 145.3 501.3 194.3 504 243.3C504.4 250.2 498.9 256 492 256H280zM436.9 144.2L357.3 224.1H469.6999999999999C464.8999999999999 195.5 453.6999999999999 167.8 436.8999999999999 144.2000000000001zM224 256V467.8C224 474.7 218.2 480.2 211.2 479.8C93.6 473.1 0.2 375.5 0 256.4C-0.3 63.3 229.6 -39.6 373.1 88.4C378.3 93 378.5 101 373.6 105.9L224 256zM32 256C32 352.6 102.8 430.6 192 445.5V256C192 239.7 189.6 245.2 201.4 233.4L335.3 99C209.3 9.1 32 100 32 256z" />
    <glyph glyph-name="check"
      unicode="&#xEA2E;"
      horiz-adv-x="448" d="M413.505 420.049L133.49 140.034L34.495 239.029C29.809 243.715 22.211 243.715 17.524 239.029L6.211 227.716C1.525 223.03 1.525 215.432 6.211 210.745L125.005 91.951C129.691 87.265 137.289 87.265 141.976 91.951L441.789 391.764C446.475 396.4500000000001 446.475 404.048 441.789 408.735L430.475 420.049C425.789 424.735 418.191 424.735 413.505 420.049z" />
    <glyph glyph-name="check-1"
      unicode="&#x63;&#x68;&#x65;&#x63;&#x6B;"
      horiz-adv-x="448" d="M413.505 420.049L133.49 140.034L34.495 239.029C29.809 243.715 22.211 243.715 17.524 239.029L6.211 227.716C1.525 223.03 1.525 215.432 6.211 210.745L125.005 91.951C129.691 87.265 137.289 87.265 141.976 91.951L441.789 391.764C446.475 396.4500000000001 446.475 404.048 441.789 408.735L430.475 420.049C425.789 424.735 418.191 424.735 413.505 420.049z" />
    <glyph glyph-name="check-circle"
      unicode="&#xEA2F;"
      horiz-adv-x="512" d="M256 504C119.033 504 8 392.967 8 256S119.033 8 256 8S504 119.033 504 256S392.967 504 256 504zM256 40C137.336 40 40 136.055 40 256C40 374.663 136.055 472 256 472C374.664 472 472 375.945 472 256C472 137.337 375.945 40 256 40zM397.63 314.961L217.15 135.929C212.445 131.262 204.847 131.292 200.18 135.997L114.302 222.569C109.635 227.274 109.665 234.872 114.37 239.539L122.89 247.99C127.595 252.657 135.193 252.627 139.86 247.9220000000001L208.836 178.389L372.2770000000001 340.519C376.9820000000001 345.1860000000001 384.5800000000001 345.156 389.2470000000001 340.451L397.6980000000001 331.931C402.3660000000001 327.226 402.3350000000001 319.628 397.6300000000001 314.961z" />
    <glyph glyph-name="check-circle-1"
      unicode="&#x63;&#x68;&#x65;&#x63;&#x6B;&#x5F;&#x63;&#x69;&#x72;&#x63;&#x6C;&#x65;"
      horiz-adv-x="512" d="M256 504C119.033 504 8 392.967 8 256S119.033 8 256 8S504 119.033 504 256S392.967 504 256 504zM256 40C137.336 40 40 136.055 40 256C40 374.663 136.055 472 256 472C374.664 472 472 375.945 472 256C472 137.337 375.945 40 256 40zM397.63 314.961L217.15 135.929C212.445 131.262 204.847 131.292 200.18 135.997L114.302 222.569C109.635 227.274 109.665 234.872 114.37 239.539L122.89 247.99C127.595 252.657 135.193 252.627 139.86 247.9220000000001L208.836 178.389L372.2770000000001 340.519C376.9820000000001 345.1860000000001 384.5800000000001 345.156 389.2470000000001 340.451L397.6980000000001 331.931C402.3660000000001 327.226 402.3350000000001 319.628 397.6300000000001 314.961z" />
    <glyph glyph-name="check-circle-solid"
      unicode="&#xEA30;"
      horiz-adv-x="512" d="M504 256C504 119.033 392.967 8 256 8S8 119.033 8 256S119.033 504 256 504S504 392.967 504 256zM227.314 124.686L411.314 308.686C417.562 314.934 417.562 325.065 411.314 331.313L388.687 353.94C382.439 360.189 372.308 360.189 366.059 353.94L216 203.882L145.941 273.9410000000001C139.693 280.189 129.562 280.189 123.313 273.9410000000001L100.686 251.314C94.438 245.0660000000001 94.438 234.935 100.686 228.687L204.686 124.687C210.935 118.438 221.065 118.438 227.314 124.686z" />
    <glyph glyph-name="check-circle-solid-1"
      unicode="&#x63;&#x68;&#x65;&#x63;&#x6B;&#x5F;&#x63;&#x69;&#x72;&#x63;&#x6C;&#x65;&#x5F;&#x73;&#x6F;&#x6C;&#x69;&#x64;"
      horiz-adv-x="512" d="M504 256C504 119.033 392.967 8 256 8S8 119.033 8 256S119.033 504 256 504S504 392.967 504 256zM227.314 124.686L411.314 308.686C417.562 314.934 417.562 325.065 411.314 331.313L388.687 353.94C382.439 360.189 372.308 360.189 366.059 353.94L216 203.882L145.941 273.9410000000001C139.693 280.189 129.562 280.189 123.313 273.9410000000001L100.686 251.314C94.438 245.0660000000001 94.438 234.935 100.686 228.687L204.686 124.687C210.935 118.438 221.065 118.438 227.314 124.686z" />
    <glyph glyph-name="check-solid"
      unicode="&#xEA31;"
      horiz-adv-x="512" d="M173.898 72.596L7.498 238.996C-2.499 248.993 -2.499 265.202 7.498 275.2L43.701 311.404C53.698 321.402 69.908 321.402 79.905 311.404L192 199.31L432.0950000000001 439.404C442.0920000000001 449.401 458.302 449.401 468.299 439.404L504.5020000000001 403.2C514.499 393.203 514.499 376.9940000000001 504.5020000000001 366.996L210.1020000000001 72.595C200.1040000000001 62.598 183.8950000000001 62.598 173.8980000000001 72.596z" />
    <glyph glyph-name="check-solid-1"
      unicode="&#x63;&#x68;&#x65;&#x63;&#x6B;&#x5F;&#x73;&#x6F;&#x6C;&#x69;&#x64;"
      horiz-adv-x="512" d="M173.898 72.596L7.498 238.996C-2.499 248.993 -2.499 265.202 7.498 275.2L43.701 311.404C53.698 321.402 69.908 321.402 79.905 311.404L192 199.31L432.0950000000001 439.404C442.0920000000001 449.401 458.302 449.401 468.299 439.404L504.5020000000001 403.2C514.499 393.203 514.499 376.9940000000001 504.5020000000001 366.996L210.1020000000001 72.595C200.1040000000001 62.598 183.8950000000001 62.598 173.8980000000001 72.596z" />
    <glyph glyph-name="chevron-down"
      unicode="&#xEA32;"
      horiz-adv-x="448" d="M443.5 349.4L436.4 356.5C431.7 361.2 424.1 361.2 419.4 356.5L224 161L28.5 356.5C23.8 361.2 16.2 361.2 11.5 356.5L4.4 349.4C-0.3 344.7000000000001 -0.3 337.1 4.4 332.4L215.4 121.3C220.1 116.6 227.7 116.6 232.4 121.3L443.4 332.4C448.2 337.1 448.2 344.7000000000001 443.5 349.4z" />
    <glyph glyph-name="chevron-down-1"
      unicode="&#x63;&#x68;&#x65;&#x76;&#x72;&#x6F;&#x6E;&#x5F;&#x64;&#x6F;&#x77;&#x6E;"
      horiz-adv-x="448" d="M443.5 349.4L436.4 356.5C431.7 361.2 424.1 361.2 419.4 356.5L224 161L28.5 356.5C23.8 361.2 16.2 361.2 11.5 356.5L4.4 349.4C-0.3 344.7000000000001 -0.3 337.1 4.4 332.4L215.4 121.3C220.1 116.6 227.7 116.6 232.4 121.3L443.4 332.4C448.2 337.1 448.2 344.7000000000001 443.5 349.4z" />
    <glyph glyph-name="chevron-left"
      unicode="&#xEA33;"
      horiz-adv-x="256" d="M238.475 36.465L245.546 43.535C250.232 48.2209999999999 250.232 55.819 245.546 60.506L50.053 256L245.546 451.494C250.232 456.18 250.232 463.778 245.546 468.465L238.475 475.535C233.789 480.221 226.191 480.221 221.505 475.535L10.454 264.485C5.768 259.799 5.768 252.201 10.454 247.514L221.505 36.464C226.191 31.778 233.789 31.778 238.475 36.465z" />
    <glyph glyph-name="chevron-left-1"
      unicode="&#x63;&#x68;&#x65;&#x76;&#x72;&#x6F;&#x6E;&#x5F;&#x6C;&#x65;&#x66;&#x74;"
      horiz-adv-x="256" d="M238.475 36.465L245.546 43.535C250.232 48.2209999999999 250.232 55.819 245.546 60.506L50.053 256L245.546 451.494C250.232 456.18 250.232 463.778 245.546 468.465L238.475 475.535C233.789 480.221 226.191 480.221 221.505 475.535L10.454 264.485C5.768 259.799 5.768 252.201 10.454 247.514L221.505 36.464C226.191 31.778 233.789 31.778 238.475 36.465z" />
    <glyph glyph-name="chevron-right"
      unicode="&#xEA34;"
      horiz-adv-x="256" d="M17.525 475.535L10.454 468.465C5.768 463.779 5.768 456.181 10.454 451.494L205.947 256L10.454 60.506C5.768 55.82 5.768 48.222 10.454 43.535L17.525 36.465C22.211 31.779 29.809 31.779 34.495 36.465L245.546 247.515C250.232 252.201 250.232 259.799 245.546 264.486L34.495 475.535C29.809 480.222 22.211 480.222 17.525 475.535z" />
    <glyph glyph-name="chevron-right-1"
      unicode="&#x63;&#x68;&#x65;&#x76;&#x72;&#x6F;&#x6E;&#x5F;&#x72;&#x69;&#x67;&#x68;&#x74;"
      horiz-adv-x="256" d="M17.525 475.535L10.454 468.465C5.768 463.779 5.768 456.181 10.454 451.494L205.947 256L10.454 60.506C5.768 55.82 5.768 48.222 10.454 43.535L17.525 36.465C22.211 31.779 29.809 31.779 34.495 36.465L245.546 247.515C250.232 252.201 250.232 259.799 245.546 264.486L34.495 475.535C29.809 480.222 22.211 480.222 17.525 475.535z" />
    <glyph glyph-name="circle"
      unicode="&#xEA35;"
      horiz-adv-x="512" d="M256 504C119 504 8 393 8 256S119 8 256 8S504 119 504 256S393 504 256 504zM472 256C472 137.3 375.9 40 256 40C137.3 40 40 136.1 40 256C40 374.7 136.1 472 256 472C374.7 472 472 375.9 472 256z" />
    <glyph glyph-name="circle-1"
      unicode="&#x63;&#x69;&#x72;&#x63;&#x6C;&#x65;"
      horiz-adv-x="512" d="M256 504C119 504 8 393 8 256S119 8 256 8S504 119 504 256S393 504 256 504zM472 256C472 137.3 375.9 40 256 40C137.3 40 40 136.1 40 256C40 374.7 136.1 472 256 472C374.7 472 472 375.9 472 256z" />
    <glyph glyph-name="circle-solid"
      unicode="&#xEA36;"
      horiz-adv-x="512" d="M256 504C119 504 8 393 8 256S119 8 256 8S504 119 504 256S393 504 256 504z" />
    <glyph glyph-name="circle-solid-1"
      unicode="&#x63;&#x69;&#x72;&#x63;&#x6C;&#x65;&#x5F;&#x73;&#x6F;&#x6C;&#x69;&#x64;"
      horiz-adv-x="512" d="M256 504C119 504 8 393 8 256S119 8 256 8S504 119 504 256S393 504 256 504z" />
    <glyph glyph-name="clipboard-list"
      unicode="&#xEA37;"
      horiz-adv-x="384" d="M280 272H168C163.6 272 160 268.4 160 264V248C160 243.6 163.6 240 168 240H280C284.4 240 288 243.6 288 248V264C288 268.4 284.4 272 280 272zM280 176H168C163.6 176 160 172.4 160 168V152C160 147.6 163.6 144 168 144H280C284.4 144 288 147.6 288 152V168C288 172.4 284.4 176 280 176zM112 280C98.7 280 88 269.3 88 256S98.7 232 112 232S136 242.7 136 256S125.3 280 112 280zM112 184C98.7 184 88 173.3 88 160S98.7 136 112 136S136 146.7 136 160S125.3 184 112 184zM336 448H247.4C247.8 450.6 248 453.3 248 456C248 486.9 222.9 512 192 512S136 486.9 136 456C136 453.3 136.2 450.6 136.6 448H48C21.5 448 0 426.5 0 400V48C0 21.5 21.5 0 48 0H336C362.5 0 384 21.5 384 48V400C384 426.5 362.5 448 336 448zM192 480C205.3 480 216 469.3 216 456S205.3 432 192 432S168 442.7 168 456S178.7 480 192 480zM352 48C352 39.2 344.8 32 336 32H48C39.2 32 32 39.2 32 48V400C32 408.8 39.2 416 48 416H96V396C96 389.4 101.4 384 108 384H276C282.6 384 288 389.4 288 396V416H336C344.8 416 352 408.8 352 400V48z" />
    <glyph glyph-name="clipboard-list-1"
      unicode="&#x63;&#x6C;&#x69;&#x70;&#x62;&#x6F;&#x61;&#x72;&#x64;&#x5F;&#x6C;&#x69;&#x73;&#x74;"
      horiz-adv-x="384" d="M280 272H168C163.6 272 160 268.4 160 264V248C160 243.6 163.6 240 168 240H280C284.4 240 288 243.6 288 248V264C288 268.4 284.4 272 280 272zM280 176H168C163.6 176 160 172.4 160 168V152C160 147.6 163.6 144 168 144H280C284.4 144 288 147.6 288 152V168C288 172.4 284.4 176 280 176zM112 280C98.7 280 88 269.3 88 256S98.7 232 112 232S136 242.7 136 256S125.3 280 112 280zM112 184C98.7 184 88 173.3 88 160S98.7 136 112 136S136 146.7 136 160S125.3 184 112 184zM336 448H247.4C247.8 450.6 248 453.3 248 456C248 486.9 222.9 512 192 512S136 486.9 136 456C136 453.3 136.2 450.6 136.6 448H48C21.5 448 0 426.5 0 400V48C0 21.5 21.5 0 48 0H336C362.5 0 384 21.5 384 48V400C384 426.5 362.5 448 336 448zM192 480C205.3 480 216 469.3 216 456S205.3 432 192 432S168 442.7 168 456S178.7 480 192 480zM352 48C352 39.2 344.8 32 336 32H48C39.2 32 32 39.2 32 48V400C32 408.8 39.2 416 48 416H96V396C96 389.4 101.4 384 108 384H276C282.6 384 288 389.4 288 396V416H336C344.8 416 352 408.8 352 400V48z" />
    <glyph glyph-name="clock"
      unicode="&#xEA38;"
      horiz-adv-x="512" d="M256 504C119 504 8 393 8 256S119 8 256 8S504 119 504 256S393 504 256 504zM472 256C472 137.3 375.9 40 256 40C137.3 40 40 136.1 40 256C40 374.7 136.1 472 256 472C374.7 472 472 375.9 472 256zM323.1 167.7L241.9000000000001 226.7C238.8000000000001 229 237.0000000000001 232.6 237.0000000000001 236.4V396C237.0000000000001 402.6 242.4000000000001 408 249.0000000000001 408H263C269.6 408 275 402.6 275 396V249.7L345.5 198.4C350.9 194.5 352 187 348.1 181.6L339.9000000000001 170.3C336.0000000000001 165 328.5000000000001 163.8 323.1 167.6999999999999z" />
    <glyph glyph-name="clock-1"
      unicode="&#x63;&#x6C;&#x6F;&#x63;&#x6B;"
      horiz-adv-x="512" d="M256 504C119 504 8 393 8 256S119 8 256 8S504 119 504 256S393 504 256 504zM472 256C472 137.3 375.9 40 256 40C137.3 40 40 136.1 40 256C40 374.7 136.1 472 256 472C374.7 472 472 375.9 472 256zM323.1 167.7L241.9000000000001 226.7C238.8000000000001 229 237.0000000000001 232.6 237.0000000000001 236.4V396C237.0000000000001 402.6 242.4000000000001 408 249.0000000000001 408H263C269.6 408 275 402.6 275 396V249.7L345.5 198.4C350.9 194.5 352 187 348.1 181.6L339.9000000000001 170.3C336.0000000000001 165 328.5000000000001 163.8 323.1 167.6999999999999z" />
    <glyph glyph-name="clone"
      unicode="&#xEA39;"
      horiz-adv-x="512" d="M464 512H144C117.49 512 96 490.51 96 464V416H48C21.49 416 0 394.51 0 368V48C0 21.49 21.49 0 48 0H368C394.51 0 416 21.49 416 48V96H464C490.51 96 512 117.49 512 144V464C512 490.51 490.51 512 464 512zM384 48C384 39.18 376.82 32 368 32H48C39.18 32 32 39.18 32 48V368C32 376.82 39.18 384 48 384H96V144C96 117.49 117.49 96 144 96H384V48zM480 144C480 135.18 472.82 128 464 128H144C135.18 128 128 135.18 128 144V464C128 472.82 135.18 480 144 480H464C472.82 480 480 472.82 480 464V144z" />
    <glyph glyph-name="clone-1"
      unicode="&#x63;&#x6C;&#x6F;&#x6E;&#x65;"
      horiz-adv-x="512" d="M464 512H144C117.49 512 96 490.51 96 464V416H48C21.49 416 0 394.51 0 368V48C0 21.49 21.49 0 48 0H368C394.51 0 416 21.49 416 48V96H464C490.51 96 512 117.49 512 144V464C512 490.51 490.51 512 464 512zM384 48C384 39.18 376.82 32 368 32H48C39.18 32 32 39.18 32 48V368C32 376.82 39.18 384 48 384H96V144C96 117.49 117.49 96 144 96H384V48zM480 144C480 135.18 472.82 128 464 128H144C135.18 128 128 135.18 128 144V464C128 472.82 135.18 480 144 480H464C472.82 480 480 472.82 480 464V144z" />
    <glyph glyph-name="cog"
      unicode="&#xEA3A;"
      horiz-adv-x="512" d="M482.696 212.724L450.086 231.551A195.168 195.168 0 0 1 450.086 280.45L482.696 299.277C492.272 304.805 496.891 316.179 493.742 326.778C482.528 364.527 462.567 398.506 436.207 426.373C428.573 434.443 416.39 436.209 406.77 430.655L374.208 411.857A194.125 194.125 0 0 1 331.869 436.337V473.951C331.869 485.081 324.217 494.755 313.385 497.318C275.741 506.227 236.267 506.228 198.615 497.318C187.784 494.755 180.131 485.082 180.131 473.951V436.337A194.101 194.101 0 0 1 137.792 411.857L105.23 430.655C95.609 436.209 83.426 434.443 75.793 426.373C49.433 398.506 29.472 364.526 18.258 326.778C15.109 316.1790000000001 19.728 304.8060000000001 29.304 299.2770000000001L61.914 280.4500000000001A195.168 195.168 0 0 1 61.914 231.5510000000001L29.304 212.7240000000001C19.728 207.196 15.109 195.8220000000001 18.258 185.2230000000001C29.472 147.4750000000001 49.433 113.4950000000001 75.793 85.628C83.427 77.5580000000001 95.61 75.792 105.23 81.345L137.792 100.143A194.08 194.08 0 0 1 180.131 75.6640000000001V38.0500000000001C180.131 26.9200000000001 187.783 17.2460000000001 198.615 14.6830000000001C236.26 5.7740000000001 275.733 5.773 313.385 14.6830000000001C324.216 17.246 331.869 26.919 331.869 38.0500000000001V75.6640000000001A194.138 194.138 0 0 1 374.208 100.143L406.77 81.345C416.39 75.7910000000001 428.573 77.557 436.207 85.628C462.567 113.4950000000001 482.528 147.475 493.742 185.2230000000001C496.891 195.8220000000001 492.2719999999999 207.1950000000001 482.696 212.7240000000001zM417.2170000000001 112.263L370.908 139.003C343.92 115.932 334.3490000000001 110.127 299.8690000000001 97.944V44.465A217.145 217.145 0 0 0 212.131 44.465V97.944C178.51 109.823 168.7760000000001 115.339 141.0920000000001 139.0029999999999L94.7830000000001 112.2629999999999C75.073 134.3529999999999 60.0940000000001 160.2519999999999 50.854 188.2209999999999L97.1830000000001 214.9609999999999C90.6480000000001 250.378 90.6450000000001 261.6049999999999 97.1830000000001 297.0399999999999L50.8540000000001 323.7799999999999C60.0940000000001 351.7489999999999 75.074 377.6489999999999 94.7830000000001 399.7489999999999L141.0920000000001 372.9889999999999C168.4690000000001 396.4229999999999 178.155 402.0539999999999 212.131 414.058V467.536A216.79 216.79 0 0 0 299.8690000000001 467.536V414.057C333.8470000000001 402.052 343.5340000000001 396.42 370.908 372.988L417.217 399.748C436.926 377.649 451.906 351.749 461.146 323.779L414.817 297.039C421.353 261.613 421.355 250.395 414.817 214.96L461.146 188.22C451.9059999999999 160.252 436.927 134.352 417.217 112.263zM256 352C203.065 352 160 308.935 160 256S203.065 160 256 160S352 203.065 352 256S308.935 352 256 352zM256 192C220.71 192 192 220.71 192 256S220.71 320 256 320S320 291.29 320 256S291.29 192 256 192z" />
    </font>
</defs>
</svg>
